<?xml version="1.0" standalone="no"?>
<!DOCTYPE svg PUBLIC "-//W3C//DTD SVG 1.1//EN" "http://www.w3.org/Graphics/SVG/1.1/DTD/svg11.dtd" >
<svg xmlns="http://www.w3.org/2000/svg" xmlns:xlink="http://www.w3.org/1999/xlink" version="1.1">
<metadata></metadata>
<defs>
<font id="akzidenzgroteskblack" horiz-adv-x="1138" >
<font-face units-per-em="2048" ascent="1638" descent="-410" />
<missing-glyph horiz-adv-x="569" />
<glyph horiz-adv-x="0" />
<glyph unicode="&#xd;" horiz-adv-x="569" />
<glyph unicode=" "  horiz-adv-x="569" />
<glyph unicode="&#x09;" horiz-adv-x="569" />
<glyph unicode="&#xa0;" horiz-adv-x="569" />
<glyph unicode="!" horiz-adv-x="606" d="M137 0v344h332v-344h-332zM137 1024v434h332v-434l-98 -528h-135z" />
<glyph unicode="&#x22;" horiz-adv-x="985" d="M182 754v704h246v-704h-246zM557 754v704h246v-704h-246z" />
<glyph unicode="#" d="M68 379v209h192l29 221h-164v209h194l52 379h213l-52 -379h164l52 379h213l-54 -379h164v-209h-192l-29 -221h164v-209h-195l-51 -379h-213l51 379h-162l-53 -379h-213l53 379h-163zM473 588h164l29 221h-164z" />
<glyph unicode="$" d="M-14 164l221 223q154 -145 358 -145q199 0 199 159q0 66 -53 105q-35 27 -121 53l-232 74q-164 51 -237 133q-82 90 -82 240q0 182 125 299q121 111 309 120v248h184v-248q228 -10 404 -147l-211 -217q-133 94 -275 94q-193 0 -192 -125q0 -63 137 -106l236 -74 q174 -55 254 -141q98 -104 98 -291q0 -184 -129 -308t-322 -139v-247h-184v247q-272 4 -487 193z" />
<glyph unicode="%" horiz-adv-x="1820" d="M180 1042q0 190 86 291q76 92 207 92t209 -92q84 -100 84 -291q0 -190 -84 -290q-78 -93 -209 -93t-207 93q-86 100 -86 290zM377 1042q0 -198 96 -198t96 198q0 199 -96 199t-96 -199zM438 -29l797 1506l121 -52l-799 -1505zM1055 354q0 190 86 291q76 92 207 92 t208 -92q84 -100 84 -291q0 -190 -84 -291q-77 -92 -208 -92t-207 92q-86 100 -86 291zM1251 354q1 -198 97 -198t96 198q0 199 -96 199t-97 -199z" />
<glyph unicode="&#x26;" horiz-adv-x="1402" d="M43 410q0 188 96 309q80 98 260 186q-88 121 -88 262q0 143 115 230q102 78 252 78q162 0 264 -80q113 -88 113 -244q-1 -211 -277 -342l187 -285q53 86 75 224l265 -99q-74 -229 -166 -352q57 -63 151 -64q33 0 70 5v-238h-186q-143 0 -234 100q-162 -113 -395 -112 q-242 0 -383 147q-119 121 -119 275zM362 446q0 -80 54 -143q59 -70 149 -70q131 0 217 76l-247 373q-172 -113 -173 -236zM582 1167q0 -51 65 -159q137 65 137 153q0 92 -104 92q-37 0 -67.5 -24.5t-30.5 -61.5z" />
<glyph unicode="'" horiz-adv-x="569" d="M162 754v704h246v-704h-246z" />
<glyph unicode="(" horiz-adv-x="720" d="M74 578q0 537 514 921l106 -108q-174 -170 -248 -353q-78 -188 -77 -460q-1 -494 329 -799l-106 -123q-268 209 -389 418q-129 223 -129 504z" />
<glyph unicode=")" horiz-adv-x="720" d="M23 -221q330 305 329 799q0 272 -78 460q-74 182 -247 353l106 108q514 -385 514 -921q0 -281 -129 -504q-121 -209 -389 -418z" />
<glyph unicode="*" horiz-adv-x="720" d="M20 1133l46 161l210 -55v219h160v-219l211 72l53 -158l-206 -63l131 -179l-136 -98l-127 176l-124 -176l-136 90l121 176z" />
<glyph unicode="+" horiz-adv-x="1228" d="M96 395v246h396v395h245v-395h396v-246h-396v-395h-245v395h-396z" />
<glyph unicode="," horiz-adv-x="569" d="M119 0v344h332v-344q0 -147 -97 -246q-86 -85 -229 -114v149q129 35 129 211h-135z" />
<glyph unicode="-" horiz-adv-x="720" d="M106 418v295h508v-295h-508z" />
<glyph unicode="." horiz-adv-x="569" d="M119 0v344h332v-344h-332z" />
<glyph unicode="/" horiz-adv-x="985" d="M53 -41l633 1540h246l-633 -1540h-246z" />
<glyph unicode="0" d="M72 698q0 367 151 559q133 168 346 168q217 0 344 -153q154 -187 154 -574q0 -385 -158 -573q-131 -154 -340 -154t-340 154q-158 188 -157 573zM379 698q0 -258 49 -366q43 -102 141 -103q96 0 142 97q49 110 49 372t-51 373q-43 96 -140 96q-190 0 -190 -469z" />
<glyph unicode="1" d="M141 973v221q279 8 371 203h260v-1397h-332v1020q-90 -35 -299 -47z" />
<glyph unicode="2" d="M72 0v246q395 311 502.5 446t107.5 312q0 176 -127 176q-137 0 -137 -217q0 -31 6 -84l-338 30v60q0 180 119 311q131 145 344 145q215 0 346 -112.5t131 -306.5q0 -219 -117 -373q-100 -133 -411 -359v-4h528v-270h-954z" />
<glyph unicode="3" d="M59 473l328 27q-8 -29 -8 -72q0 -199 168 -199t168 187q0 203 -174 202h-64v234h72q139 0 139 149q0 166 -137 166q-133 0 -145 -200l-320 26q12 211 150 326q129 106 337 106q207 0 328 -94q131 -102 131 -293q0 -221 -211 -297v-4q258 -78 258 -323q0 -238 -172 -351 q-139 -92 -358 -92q-260 0 -379 129q-111 119 -111 373z" />
<glyph unicode="4" d="M33 322v245l575 830h312v-842h186v-233h-184v-322h-334v322h-555zM266 555h322v485h-4z" />
<glyph unicode="5" d="M59 438l320 15v-45q0 -86 48 -138.5t112 -52.5q92 0 141 76q43 66 43 166q0 262 -176 262q-106 0 -154 -109l-278 47l90 738h803l-23 -271h-530l-35 -245q88 74 225 73q184 0 303 -131t119 -338q0 -215 -129 -354q-145 -160 -408 -160q-240 0 -360 133q-111 121 -111 334 z" />
<glyph unicode="6" d="M72 647q0 778 538 778q380 0 443 -385l-328 -32q-20 160 -129 159q-115 0 -162 -125q-37 -96 -43 -292h6q94 145 293 145q162 0 268 -102q123 -119 123 -334q0 -219 -137 -353.5t-356 -134.5q-223 0 -355 140q-162 172 -161 536zM428 446q0 -217 166 -217q168 0 168 217 q0 88 -41 142q-45 61 -127 61q-74 0 -120 -54t-46 -149z" />
<glyph unicode="7" d="M125 1126v271h989v-258q-186 -193 -321 -498q-143 -328 -162 -641h-385q127 647 538 1126h-659z" />
<glyph unicode="8" d="M72 401q0 121 68.5 209t185.5 115v4q-90 39 -144.5 125t-54.5 188q0 383 459 383q190 0 303 -90q123 -100 123 -293q0 -102 -54.5 -188t-144.5 -125v-4q117 -27 185.5 -115t68.5 -209q0 -219 -143 -329q-129 -100 -355 -101q-225 0 -354 101q-143 111 -143 329zM403 418 q0 -201 166 -201t166 201q0 199 -166 198q-166 0 -166 -198zM434 1010q0 -172 135 -172q136 0 136 172q0 170 -136 170q-135 0 -135 -170z" />
<glyph unicode="9" d="M57 938q0 219 137.5 353t356.5 134q223 0 354 -139q162 -172 162 -536q0 -778 -539 -779q-379 0 -442 385l328 33q20 -160 129 -160q115 0 162 125q37 96 43 293h-7q-94 -145 -292 -145q-162 0 -269 102q-123 119 -123 334zM377 950q0 -88 41 -141q45 -61 127 -61 q74 0 120 54t46 148q0 217 -166 217q-168 0 -168 -217z" />
<glyph unicode=":" horiz-adv-x="569" d="M119 0v344h332v-344h-332zM119 729v344h332v-344h-332z" />
<glyph unicode=";" horiz-adv-x="569" d="M119 0v344h332v-344q0 -147 -97 -246q-86 -85 -229 -114v149q129 35 129 211h-135zM119 729v344h332v-344h-332z" />
<glyph unicode="&#x3c;" horiz-adv-x="1228" d="M96 422v192l1037 439v-236l-719 -299l719 -299v-235z" />
<glyph unicode="=" horiz-adv-x="1228" d="M96 166v246h1037v-246h-1037zM96 625v245h1037v-245h-1037z" />
<glyph unicode="&#x3e;" horiz-adv-x="1228" d="M96 -16v235l719 299l-719 299v236l1037 -439v-192z" />
<glyph unicode="?" horiz-adv-x="1251" d="M86 1079q113 391 541 391q276 0 420 -118q119 -100 118 -254q0 -176 -168 -301l-262 -195q-49 -37 -55 -100h-258v63q0 104 102 193q92 68 187 137q102 84 102 180q0 80 -56.5 121t-138.5 41q-106 0 -172.5 -71.5t-70.5 -182.5zM385 0v344h332v-344h-332z" />
<glyph unicode="@" horiz-adv-x="1638" d="M66 723q0 330 230 553t560 223q281 0 494 -170q223 -180 223 -442q0 -301 -221 -471q-160 -121 -308 -121q-109 0 -110 102h-4q-88 -102 -199 -102q-141 0 -239.5 105.5t-98.5 275.5q0 176 113 307q121 137 303 137q162 0 250 -116l20 98h195l-92 -492q-10 -55 -11 -71 q0 -43 37 -43q72 0 129 86q63 94 64 235q0 236 -151.5 367t-401.5 131q-266 0 -424 -172q-150 -164 -150 -418q0 -260 167 -421t431 -161q238 0 402 121l203 6q-229 -311 -609 -311q-336 0 -569 217t-233 547zM627 705q0 -86 49 -137.5t127 -51.5t143.5 57.5t65.5 147.5 q0 96 -60 149q-47 41 -102 41q-86 0 -152 -57q-72 -61 -71 -149z" />
<glyph unicode="A" horiz-adv-x="1478" d="M6 0l539 1458h377l551 -1458h-392l-73 229h-539l-74 -229h-389zM555 500h365l-181 602h-4z" />
<glyph unicode="B" horiz-adv-x="1478" d="M141 0v1458h713q494 0 494 -375q0 -260 -306 -329v-4q160 -12 254 -93q104 -88 105 -241q0 -416 -596 -416h-664zM489 885h304q190 0 190 151q0 88 -49 123q-43 29 -141 29h-304v-303zM494 270h297q245 0 245 169q0 93 -40 134t-140 41h-362v-344z" />
<glyph unicode="C" horiz-adv-x="1441" d="M262 1268q197 231 524 231q398 0 611 -381l-291 -145q-37 100 -122 159.5t-181 59.5q-162 0 -256 -109q-104 -121 -105 -354q0 -188 80 -311q96 -152 293 -152q80 0 169 56.5t130 148.5l289 -139q-94 -172 -250 -272.5t-338 -100.5q-336 0 -543 231q-194 216 -194 536 q0 327 184 542z" />
<glyph unicode="D" horiz-adv-x="1517" d="M131 0v1458h565q350 0 539 -170q205 -184 205 -559t-205 -559q-188 -170 -539 -170h-565zM496 307h209q370 0 370 420q0 424 -373 424h-206v-844z" />
<glyph unicode="E" horiz-adv-x="1327" d="M141 0v1458h1073v-282h-708v-267h661v-282h-661v-344h770v-283h-1135z" />
<glyph unicode="F" horiz-adv-x="1290" d="M141 0v1458h1114v-282h-749v-308h694v-282h-694v-586h-365z" />
<glyph unicode="G" horiz-adv-x="1554" d="M78 723q0 346 180 555q190 221 535 221h2q451 0 669 -364l-303 -134q-109 190 -344 191q-174 0 -270 -111q-104 -121 -105 -352q0 -217 96.5 -340t278.5 -123q115 0 205 62q106 74 119 202h-324v283h631v-813h-283v131q-150 -172 -424 -172q-322 0 -497 215 q-166 205 -166 549z" />
<glyph unicode="H" horiz-adv-x="1554" d="M141 0v1458h365v-524h543v524h364v-1458h-364v614h-543v-614h-365z" />
<glyph unicode="I" horiz-adv-x="647" d="M141 0v1458h365v-1458h-365z" />
<glyph unicode="J" horiz-adv-x="833" d="M39 0v295h151q86 0 115 39q23 31 23 108v1016h364v-1134q0 -324 -348 -324h-305z" />
<glyph unicode="K" horiz-adv-x="1517" d="M141 0v1458h365v-581l522 581h483l-530 -553l547 -905h-406l-397 647l-219 -223v-424h-365z" />
<glyph unicode="L" d="M141 0v1458h365v-1151h569v-307h-934z" />
<glyph unicode="M" horiz-adv-x="1857" d="M133 0v1458h535l258 -1083h4l266 1083h528v-1458h-344v1133h-4l-289 -1133h-321l-297 1133h-4v-1133h-332z" />
<glyph unicode="N" horiz-adv-x="1517" d="M141 0v1458h369l530 -932h4v932h332v-1458h-364l-535 918h-4v-918h-332z" />
<glyph unicode="O" horiz-adv-x="1630" d="M272 1268q207 231 543 231t543 -231q194 -217 194 -539t-194 -539q-207 -231 -543 -231t-543 231q-194 216 -194 536q0 325 194 542zM442 729q0 -188 80 -311q96 -152 293 -152q188 0 289 148q84 125 84 315q0 193 -84 318q-100 145 -289 145q-170 0 -266 -109 q-106 -119 -107 -354z" />
<glyph unicode="P" horiz-adv-x="1441" d="M141 0v1458h723q539 0 539 -493q0 -190 -117 -320q-158 -174 -491 -174h-285v-471h-369zM506 741h307q117 0 174 68q51 59 51 154q0 225 -235 225h-297v-447z" />
<glyph unicode="Q" horiz-adv-x="1630" d="M272 1268q207 231 543 231t543 -231q194 -216 194 -536v-3q0 -279 -151 -485q25 -37 103.5 -73t162.5 -46l-106 -260q-104 8 -226 72q-94 51 -157 110q-164 -88 -363 -88q-336 0 -543 231q-194 216 -194 536q0 325 194 542zM442 729q0 -188 80 -311q96 -152 293 -152 q188 0 289 148q84 125 84 315q0 193 -84 318q-100 145 -289 145q-170 0 -266 -109q-106 -119 -107 -354z" />
<glyph unicode="R" horiz-adv-x="1478" d="M141 0v1458h729q528 0 529 -479q0 -141 -82 -246.5t-219 -146.5l334 -586h-408l-287 524h-231v-524h-365zM506 795h334q194 0 194 194q0 199 -194 199h-334v-393z" />
<glyph unicode="S" horiz-adv-x="1402" d="M4 256l279 180q203 -182 422 -182q94 0 172 37q100 47 100 131q0 102 -164 129l-303 49q-418 68 -418 401q0 248 182 381q160 117 414 117q391 0 643 -280l-276 -199q-152 184 -391 184q-72 0 -136 -39q-71 -42 -71 -106q0 -108 202 -141l140 -23q252 -41 375 -121 q155 -101 155 -293q0 -295 -231 -426q-170 -96 -436 -96q-386 0 -658 297z" />
<glyph unicode="T" horiz-adv-x="1175" d="M25 1176v282h1126v-282h-381v-1176h-364v1176h-381z" />
<glyph unicode="U" horiz-adv-x="1517" d="M141 508v950h365v-919q0 -285 252 -285q254 0 254 285v919h364v-950q0 -274 -205 -424q-170 -125 -413 -125q-242 0 -412 125q-205 150 -205 424z" />
<glyph unicode="V" horiz-adv-x="1402" d="M12 1458h387l297 -1040h4l308 1040h383l-504 -1458h-387z" />
<glyph unicode="W" horiz-adv-x="2048" d="M12 1458h365l219 -1040h4l256 1040h334l266 -1040h4l217 1040h359l-377 -1458h-379l-260 997h-4l-258 -997h-365z" />
<glyph unicode="X" horiz-adv-x="1593" d="M12 0l561 784l-481 674h443l266 -444l264 444h436l-479 -674l559 -784h-446l-336 545l-346 -545h-441z" />
<glyph unicode="Y" horiz-adv-x="1478" d="M4 1458h426l309 -504l310 504h426l-553 -778v-680h-365v680z" />
<glyph unicode="Z" horiz-adv-x="1402" d="M74 0v272l811 904h-748v282h1192v-284l-801 -891h797v-283h-1251z" />
<glyph unicode="[" horiz-adv-x="720" d="M147 -303v1761h545v-172h-274v-1417h274v-172h-545z" />
<glyph unicode="\" horiz-adv-x="985" d="M53 1499h246l633 -1540h-246z" />
<glyph unicode="]" horiz-adv-x="720" d="M29 -131h274v1417h-274v172h544v-1761h-544v172z" />
<glyph unicode="^" horiz-adv-x="1228" d="M150 649l356 748h217l356 -748h-239l-226 508l-227 -508h-237z" />
<glyph unicode="_" horiz-adv-x="1024" d="M0 -154h1024v-102h-1024v102z" />
<glyph unicode="`" horiz-adv-x="569" d="M-2 1520h371l202 -308h-245z" />
<glyph unicode="a" horiz-adv-x="1214" d="M80 295q0 186 149 283q127 82 410 120l117 17v90q0 117 -152 117q-78 0 -116.5 -33t-51.5 -113h-307q10 342 449 342q240 0 354 -65q131 -76 131 -250v-576q0 -154 29 -227h-295q-16 51 -21 113h-4q-39 -61 -141 -103q-94 -39 -187 -39q-162 0 -260 84q-104 88 -104 240z M387 328q0 -123 150 -123q98 0 158.5 64.5t60.5 185.5v75l-215 -61q-154 -43 -154 -141z" />
<glyph unicode="b" horiz-adv-x="1290" d="M143 0v1458h320v-469q117 129 299 129q188 0 315 -123q148 -143 148 -410v-7q-2 -309 -144 -465q-127 -141 -346 -142q-174 0 -280 135h-4v-106h-308zM461 545q0 -340 223 -340q221 0 221 323v17q-2 168 -47 248q-53 92 -174 92q-223 0 -223 -340z" />
<glyph unicode="c" d="M223 967q149 151 380 151h3q345 0 490 -266l-246 -129q-70 149 -203 149h-2q-248 0 -248 -327q0 -147 60 -234q66 -94 188 -94q162 0 227 160l230 -117q-76 -133 -201 -209q-131 -80 -285 -80q-250 0 -397 150q-153 153 -153 420.5t157 425.5z" />
<glyph unicode="d" horiz-adv-x="1290" d="M66 537v15q0 288 147 437q125 129 315 129q188 0 299 -114v454h320v-1458h-307v106h-4q-106 -135 -293 -135q-209 0 -334 135q-139 147 -143 431zM385 545q0 -340 219 -340q223 0 223 362q0 317 -223 318q-219 0 -219 -340z" />
<glyph unicode="e" horiz-adv-x="1214" d="M66 512q0 287 142 446.5t392 159.5q279 0 416 -192q117 -166 119 -447h-750q2 -143 82 -215q63 -59 156 -59q84 0 143 47q47 37 123 145l239 -125q-162 -301 -528 -301q-248 0 -393 156q-141 147 -141 385zM381 676h434q-6 109 -78 164q-57 45 -139 45q-78 0 -137 -51 q-70 -58 -80 -158z" />
<glyph unicode="f" horiz-adv-x="720" d="M16 872v197h168v107q0 299 312 299q139 0 209 -25v-233h-91q-111 0 -110 -78v-70h196v-197h-196v-872h-320v872h-168z" />
<glyph unicode="g" horiz-adv-x="1251" d="M66 588q0 217 106 364q117 166 322 166q195 0 311 -114v86h295v-1092q0 -358 -522 -358q-500 0 -502 376h332q2 -168 184 -168q102 0 145 33q53 41 54 152v125q-92 -90 -302 -90q-215 0 -325 157q-98 137 -98 363zM385 592q0 -291 197 -291q135 0 182 102q29 64 29 189 q0 152 -66 229q-55 63 -141 64q-201 0 -201 -293z" />
<glyph unicode="h" horiz-adv-x="1251" d="M143 0v1458h320v-471h4q43 59 135 96q84 35 164 35q342 0 342 -352v-766h-320v653q0 207 -159 207q-166 0 -166 -250v-610h-320z" />
<glyph unicode="i" horiz-adv-x="606" d="M143 0v1090h320v-1090h-320zM143 1212v246h320v-246h-320z" />
<glyph unicode="j" horiz-adv-x="606" d="M4 -102h72q68 0 67 98v1094h320v-1151q0 -127 -60 -207q-70 -92 -208 -92h-191v258zM143 1212v246h320v-246h-320z" />
<glyph unicode="k" horiz-adv-x="1214" d="M143 0v1458h320v-735l332 367h391l-373 -414l404 -676h-365l-270 440l-119 -121v-319h-320z" />
<glyph unicode="l" horiz-adv-x="606" d="M143 0v1458h320v-1458h-320z" />
<glyph unicode="m" horiz-adv-x="1896" d="M143 0v1090h320v-97q106 125 315 125q180 0 289 -145q143 145 350 145q121 0 209 -49q127 -74 127 -238v-831h-319v637q0 117 -38 170t-126 53q-78 0 -120 -52t-42 -138v-670h-320v682q0 178 -155 178q-170 0 -170 -182v-678h-320z" />
<glyph unicode="n" horiz-adv-x="1251" d="M143 0v1090h320v-97q106 125 315 125q330 0 330 -313v-805h-320v682q0 178 -155 178q-170 0 -170 -182v-678h-320z" />
<glyph unicode="o" horiz-adv-x="1290" d="M66 545q0 270 159.5 421.5t419.5 151.5t420 -151.5t160 -421.5t-160 -422t-420 -152t-419.5 151.5t-159.5 422.5zM385 545q0 -147 61 -234q68 -94 199 -94q260 0 260 340q0 139 -61 223q-70 92 -199 92q-131 0 -199 -94q-61 -86 -61 -233z" />
<glyph unicode="p" horiz-adv-x="1251" d="M129 -360v1450h295v-101h4q100 129 291 129q203 0 330 -137q137 -147 137 -399q0 -303 -121 -457t-344 -154q-158 0 -268 99h-4v-430h-320zM440 545q0 -340 222 -340q221 0 221 375q0 125 -49 208q-57 96 -168 97q-113 0 -172 -101q-54 -89 -54 -239z" />
<glyph unicode="q" horiz-adv-x="1251" d="M66 582q0 252 137 399q127 137 329 137q190 0 291 -129h4v101h295v-1450h-319v430h-4q-111 -98 -269 -99q-223 0 -343.5 154t-120.5 457zM369 580q0 -375 221 -375t221 340q0 150 -53 239q-59 100 -172 101q-111 0 -168 -97q-49 -84 -49 -208z" />
<glyph unicode="r" horiz-adv-x="796" d="M143 0v1090h320v-111q106 100 299 115l2 -283l-35 -4q-150 -18 -205 -51q-61 -37 -61 -125v-631h-320z" />
<glyph unicode="s" d="M33 186l198 172q159 -153 342 -153h2q174 0 175 110q0 66 -168 99q-246 51 -310 80q-168 76 -168 243q0 190 148 293q125 88 313 88h3q244 0 479 -157l-197 -193q-45 53 -137 86q-82 31 -164 31q-137 0 -137 -84q0 -72 168 -107q250 -53 309 -80q168 -78 168 -254 q0 -199 -156 -301q-133 -88 -336 -88q-172 0 -295 54q-113 47 -237 161z" />
<glyph unicode="t" horiz-adv-x="720" d="M16 872v197h156v315h320v-315h190v-197h-190v-534q0 -109 100 -109q47 0 96 7v-252q-123 -12 -205 -13q-184 0 -258 105q-53 76 -53 223v573h-156z" />
<glyph unicode="u" horiz-adv-x="1251" d="M143 285v805h320v-713q0 -147 155 -148q170 0 170 170v691h320v-1090h-320v96q-106 -125 -315 -125q-330 0 -330 314z" />
<glyph unicode="v" horiz-adv-x="1062" d="M0 1090h342l188 -771h5l188 771h340l-373 -1090h-321z" />
<glyph unicode="w" horiz-adv-x="1630" d="M-4 1090h332l145 -771h4l160 771h346l143 -771h4l170 771h334l-362 -1090h-314l-155 711h-4l-162 -711h-315z" />
<glyph unicode="x" horiz-adv-x="1062" d="M-4 0l356 567l-325 523h366l139 -308l144 308h366l-333 -517l358 -573h-352l-187 352l-178 -352h-354z" />
<glyph unicode="y" horiz-adv-x="1024" d="M-8 1090h336l176 -832h4l178 832h346l-383 -1162q-47 -143 -106 -207q-75 -81 -204 -81h-3h-252v249q74 -4 109 -4q147 0 147 80q0 27 -29 117z" />
<glyph unicode="z" horiz-adv-x="1175" d="M94 0v258l580 586h-516v246h923v-259l-579 -585h575v-246h-983z" />
<glyph unicode="{" horiz-adv-x="681" d="M4 473v209q199 0 199 125v356q0 150 94 228q80 68 203 67h178v-184h-86q-119 0 -119 -146v-350q0 -104 -84 -157q-57 -37 -137 -41v-5q80 -4 137 -40q84 -53 84 -158v-350q0 -145 119 -146h86v-184h-178q-123 0 -203 67q-94 78 -94 228v356q0 125 -199 125z" />
<glyph unicode="|" horiz-adv-x="454" d="M104 -41v1540h246v-1540h-246z" />
<glyph unicode="}" horiz-adv-x="681" d="M4 -119h86q119 0 119 146v350q0 104 84 158q57 37 137 40v5q-80 4 -137 41q-84 53 -84 157v350q0 145 -119 146h-86v184h178q123 0 205 -67q92 -78 92 -228v-356q0 -125 199 -125v-209q-199 0 -199 -125v-356q0 -150 -92 -228q-82 -68 -205 -67h-178v184z" />
<glyph unicode="~" horiz-adv-x="1228" d="M141 530q92 174 256 175q84 0 228 -64q168 -74 209 -74q84 0 180 148l73 -209q-61 -86 -102 -121q-70 -55 -154 -55q-88 0 -208 67q-133 74 -236 74q-100 1 -172 -149z" />
<glyph unicode="&#xa1;" horiz-adv-x="606" d="M137 66l99 528h135l98 -528v-435h-332v435zM137 745v345h332v-345h-332z" />
<glyph unicode="&#xa2;" d="M66 545q0 242 135 397q127 147 334 170v215h184v-215q258 -41 377 -260l-246 -129q-70 150 -205 149q-248 0 -248 -327q0 -147 60 -234q66 -94 188 -94q162 0 227 160l230 -117q-133 -236 -383 -278v-252h-184v247q-215 23 -342 171.5t-127 396.5z" />
<glyph unicode="&#xa3;" d="M27 184q0 98 57 165t164 67q61 0 137 -45q0 150 -33 188h-246v213h160q-139 135 -139 285q0 162 133 265t338 103q203 0 332 -96q143 -109 143 -309v-86h-303v51q0 182 -154 182q-72 0 -114.5 -36.5t-42.5 -96.5q0 -55 37 -139q27 -61 55 -123h256v-209h-203 q14 -57 14 -117q0 -70 -51 -161q104 -55 164 -56q98 0 98 138v51h283v-76q0 -117 -55 -221q-80 -150 -240 -150q-176 0 -323 121q-72 -121 -240 -121q-100 0 -163.5 57.5t-63.5 155.5zM186 174q0 -55 58 -55q68 0 108 84q-47 53 -104 53q-61 0 -62 -82z" />
<glyph unicode="&#xa4;" d="M35 293l119 119q-94 106 -95 286q0 195 93 289l-117 117l129 129l117 -117q104 90 286 90q186 0 279 -86l119 119l139 -139l-115 -115q86 -92 86 -287q0 -182 -90 -290l115 -115l-123 -123l-119 119q-98 -98 -291 -99q-186 0 -291 95l-116 -117zM305 698 q0 -125 79 -205.5t183 -80.5t183 80.5t79 205.5t-79 209q-78 78 -183 78q-104 0 -182 -78q-80 -84 -80 -209z" />
<glyph unicode="&#xa5;" d="M-47 1397h409l207 -504l207 504h410l-326 -541h180v-209h-305v-149h305v-209h-305v-289h-332v289h-305v209h305v149h-305v209h181z" />
<glyph unicode="&#xa6;" horiz-adv-x="454" d="M104 -41v592h246v-592h-246zM104 907v592h246v-592h-246z" />
<glyph unicode="&#xa7;" d="M41 647q0 227 219 314q-98 74 -98 210q0 147 115.5 237.5t300.5 90.5q256 0 489 -162l-178 -190q-170 119 -311 119q-53 0 -87 -26t-34 -60q0 -47 29.5 -74t127.5 -74l248 -117q236 -111 236 -337q0 -227 -207 -332q94 -74 94 -209q0 -156 -127 -248q-117 -84 -301 -84 q-291 0 -491 172l196 180q119 -119 293 -118q135 0 135 90q0 59 -82 102l-352 188q-215 115 -215 328zM311 690q3 -84 105 -145l311 -187q57 66 68 80q33 47 32 94q0 82 -112 144l-297 160q-29 0 -69 -50.5t-38 -95.5z" />
<glyph unicode="&#xa8;" horiz-adv-x="569" d="M-86 1233v258h307v-258h-307zM348 1233v258h307v-258h-307z" />
<glyph unicode="&#xa9;" horiz-adv-x="1638" d="M49 729q0 319 225.5 544.5t544.5 225.5t544.5 -225t225.5 -545q0 -319 -225 -544.5t-545 -225.5q-319 0 -544.5 225.5t-225.5 544.5zM246 729q0 -272 168 -440q162 -162 405 -162q244 0 409 165t165 437t-168 440q-162 162 -406 162t-405 -162q-168 -168 -168 -440z M410 729q0 195 114.5 320t306.5 125q141 0 238.5 -83t122.5 -235h-201q-20 145 -184 145q-188 0 -189 -266q0 -125 52.5 -199.5t140.5 -74.5q172 0 180 149h207q-20 -154 -121.5 -237.5t-240.5 -83.5q-188 0 -307 126t-119 314z" />
<glyph unicode="&#xaa;" horiz-adv-x="788" d="M66 930q0 143 157 203q51 18 285 55v29q0 86 -100 86q-94 0 -111 -78h-197q10 201 303 200q145 0 215 -36q87 -45 87 -154v-344q0 -90 18 -137h-195q-10 45 -10 75h-4q-18 -41 -86 -67q-59 -25 -115 -25q-109 0 -178 50.5t-69 142.5zM262 954q0 -82 94 -82q66 0 110 47.5 t44 120.5v37h-4l-148 -37q-96 -25 -96 -86z" />
<glyph unicode="&#xab;" horiz-adv-x="796" d="M63 438v254l295 234v-262l-122 -99l122 -98v-262zM438 438v254l295 234v-262l-123 -99l123 -98v-262z" />
<glyph unicode="&#xac;" horiz-adv-x="1228" d="M96 625v245h1037v-649h-246v404h-791z" />
<glyph unicode="&#xad;" horiz-adv-x="720" d="M106 418v295h508v-295h-508z" />
<glyph unicode="&#xae;" horiz-adv-x="1638" d="M49 729q0 319 225.5 544.5t544.5 225.5t544.5 -225t225.5 -545q0 -319 -225 -544.5t-545 -225.5q-319 0 -544.5 225.5t-225.5 544.5zM246 729q0 -272 168 -440q162 -162 405 -162q244 0 409 165t165 437t-168 440q-162 162 -406 162t-405 -162q-168 -168 -168 -440z M508 311v844h414q254 0 254 -240q0 -225 -230 -239l215 -365h-207l-190 353h-72v-353h-184zM694 811h160q113 0 113 98q0 63 -33 84q-23 14 -80 15h-160v-197z" />
<glyph unicode="&#xaf;" horiz-adv-x="569" d="M-49 1286v172h667v-172h-667z" />
<glyph unicode="&#xb0;" horiz-adv-x="819" d="M100 1116q0 127 91.5 218t218.5 91t218 -91t91 -218t-91 -218t-218 -91t-218.5 91t-91.5 218zM236 1116q0 -72 51 -123t123 -51t123 51t51 123t-51.5 123t-122.5 51q-72 0 -123 -51t-51 -123z" />
<glyph unicode="&#xb1;" horiz-adv-x="1228" d="M96 0v246h1037v-246h-1037zM96 549v246h396v241h245v-241h396v-246h-396v-242h-245v242h-396z" />
<glyph unicode="&#xb2;" horiz-adv-x="739" d="M37 575v148q262 199 307 246q90 92 90 207q0 37 -24.5 63.5t-49.5 26.5q-35 0 -61.5 -31t-26.5 -80q0 -43 7 -68l-228 19v47q0 109 70 182q82 90 237 90q129 0 213 -59q96 -70 97 -190q0 -123 -72 -215.5t-252 -208.5v-4h324v-173h-631z" />
<glyph unicode="&#xb3;" horiz-adv-x="739" d="M29 870l221 13v-27q0 -121 115 -121q39 0 69.5 29t30.5 72t-31 70.5t-82 27.5h-47v147h43q98 0 98 90q0 94 -81 95q-79 -1 -89 -103l-223 8q29 254 322 254q135 0 220 -61t85 -170q0 -59 -41 -108.5t-100 -67.5v-4q172 -45 172 -187q0 -141 -127 -211q-92 -53 -219 -53 q-336 0 -336 307z" />
<glyph unicode="&#xb4;" horiz-adv-x="569" d="M-2 1212l203 308h370l-327 -308h-246z" />
<glyph unicode="&#xb5;" horiz-adv-x="1251" d="M143 -360v1450h320v-682q0 -178 155 -179q88 0 134 52q37 41 36 102v707h320v-1090h-320v55q-76 -84 -161 -84q-104 0 -164 64v-395h-320z" />
<glyph unicode="&#xb6;" horiz-adv-x="1269" d="M61 1094q0 205 146 292q119 72 358 72h643v-1712h-245v1528h-199v-1528h-246v997q-221 0 -339 92.5t-118 258.5z" />
<glyph unicode="&#xb7;" horiz-adv-x="569" d="M94 584q0 78 56.5 134t134.5 56t134 -56t56 -134t-56.5 -134.5t-133.5 -56.5q-78 0 -134.5 56.5t-56.5 134.5z" />
<glyph unicode="&#xb8;" horiz-adv-x="569" d="M18 -426l43 92q74 -39 166 -39q106 0 107 80q0 70 -90 70q-55 0 -84 -13l-43 37l114 189h115l-84 -127q41 8 74 8q74 0 127 -37q61 -43 61 -117q0 -82 -59 -135q-72 -61 -203 -61t-244 53z" />
<glyph unicode="&#xb9;" horiz-adv-x="739" d="M133 1137v147q178 0 242 129h174v-838h-234v592q-76 -31 -182 -30z" />
<glyph unicode="&#xba;" horiz-adv-x="839" d="M43 1081q0 162 107 254q100 90 270 90t273.5 -91t103.5 -253t-103.5 -253t-273.5 -91t-270 90q-106 92 -107 254zM252 1081q0 -197 168 -196q168 -1 168 196t-168 197t-168 -197z" />
<glyph unicode="&#xbb;" horiz-adv-x="796" d="M63 205v262l123 98l-123 99v262l295 -236v-252zM438 205v262l123 98l-123 99v262l295 -236v-252z" />
<glyph unicode="&#xbc;" horiz-adv-x="1708" d="M133 1137v147q178 0 242 129h174v-838h-234v592q-76 -31 -182 -30zM371 -74l850 1544h180l-850 -1544h-180zM981 186v158l369 494h221v-504h115v-148h-115v-186h-221v186h-369zM1128 334h222v295h-4z" />
<glyph unicode="&#xbd;" horiz-adv-x="1708" d="M133 1137v147q178 0 242 129h174v-838h-234v592q-76 -31 -182 -30zM307 -74l850 1544h180l-850 -1544h-180zM1010 0v147q262 199 307 246q90 92 90 207q0 37 -24.5 63.5t-49.5 26.5q-35 0 -61.5 -30.5t-26.5 -79.5q0 -43 6 -68l-227 18v48q0 109 70 182q82 90 237 90 q129 0 213 -59q96 -70 96 -191q0 -123 -71.5 -215t-251.5 -209v-4h323v-172h-630z" />
<glyph unicode="&#xbe;" horiz-adv-x="1708" d="M29 870l221 13v-27q0 -121 115 -121q39 0 69.5 29t30.5 72t-31 70.5t-82 27.5h-47v147h43q98 0 98 90q0 94 -81 95q-79 -1 -89 -103l-223 8q29 254 322 254q135 0 220 -61t85 -170q0 -59 -41 -108.5t-100 -67.5v-4q172 -45 172 -187q0 -141 -127 -211q-92 -53 -219 -53 q-336 0 -336 307zM416 -74l850 1544h180l-850 -1544h-180zM981 186v158l369 494h221v-504h115v-148h-115v-186h-221v186h-369zM1128 334h222v295h-4z" />
<glyph unicode="&#xbf;" horiz-adv-x="1251" d="M86 -8q0 176 168 301l262 194q49 38 55 101h258v-64q0 -104 -102 -192q-92 -68 -186 -137q-102 -84 -103 -181q0 -80 60 -123q53 -39 135 -38q106 0 172.5 71.5t71.5 181.5l288 -96q-113 -391 -540 -391q-276 0 -420 119q-119 100 -119 254zM535 745v345h331v-345h-331z " />
<glyph unicode="&#xc0;" horiz-adv-x="1478" d="M6 0l539 1458h377l551 -1458h-392l-73 229h-539l-74 -229h-389zM360 1870h371l202 -308h-245zM555 500h365l-181 602h-4z" />
<glyph unicode="&#xc1;" horiz-adv-x="1478" d="M6 0l539 1458h377l551 -1458h-392l-73 229h-539l-74 -229h-389zM545 1562l203 308h370l-327 -308h-246zM555 500h365l-181 602h-4z" />
<glyph unicode="&#xc2;" horiz-adv-x="1478" d="M6 0l539 1458h377l551 -1458h-392l-73 229h-539l-74 -229h-389zM349 1581l233 308h313l236 -308h-268l-125 168l-127 -168h-262zM555 500h365l-181 602h-4z" />
<glyph unicode="&#xc3;" horiz-adv-x="1478" d="M6 0l539 1458h377l551 -1458h-392l-73 229h-539l-74 -229h-389zM353 1575q14 106 75 182q70 88 172 88q57 0 163 -41t132 -41q70 0 88 82h144q-8 -98 -58 -168q-66 -92 -186 -92q-76 0 -170 38t-125 38q-74 0 -90 -86h-145zM555 500h365l-181 602h-4z" />
<glyph unicode="&#xc4;" horiz-adv-x="1478" d="M6 0l539 1458h377l551 -1458h-392l-73 229h-539l-74 -229h-389zM369 1602v258h307v-258h-307zM555 500h365l-181 602h-4zM803 1602v258h307v-258h-307z" />
<glyph unicode="&#xc5;" horiz-adv-x="1478" d="M6 0l539 1458h377l551 -1458h-392l-73 229h-539l-74 -229h-389zM510 1728q0 94 67.5 162t162.5 68q94 0 161.5 -68t67.5 -162t-67.5 -161.5t-161.5 -67.5t-162 67.5t-68 161.5zM555 500h365l-181 602h-4zM633 1728q0 -41 32 -73.5t75 -32.5t74.5 31.5t31.5 74.5t-31.5 75 t-74.5 32t-75 -33t-32 -74z" />
<glyph unicode="&#xc6;" horiz-adv-x="2314" d="M-35 0l856 1458h1370v-282h-749v-267h700v-282h-700v-344h821v-283h-1184v356h-514l-192 -356h-408zM719 627h358v635h-4z" />
<glyph unicode="&#xc7;" horiz-adv-x="1441" d="M78 729q0 324 184 539q197 231 524 231q398 0 611 -381l-291 -145q-37 100 -122 159.5t-181 59.5q-162 0 -256 -109q-104 -121 -105 -354q0 -188 80 -311q96 -152 293 -152q80 0 169 56.5t130 148.5l289 -139q-94 -172 -250 -272.5t-338 -100.5q-336 0 -543 231 q-195 217 -194 539zM546 -426l43 92q74 -39 166 -39q106 0 107 80q0 70 -90 70q-55 0 -84 -13l-43 37l114 189h115l-84 -127q41 8 74 8q74 0 127 -37q61 -43 61 -117q0 -82 -59 -135q-72 -61 -203 -61t-244 53z" />
<glyph unicode="&#xc8;" horiz-adv-x="1327" d="M141 0v1458h1073v-282h-708v-267h661v-282h-661v-344h770v-283h-1135zM340 1870h371l202 -308h-245z" />
<glyph unicode="&#xc9;" horiz-adv-x="1327" d="M141 0v1458h1073v-282h-708v-267h661v-282h-661v-344h770v-283h-1135zM524 1562l203 308h370l-327 -308h-246z" />
<glyph unicode="&#xca;" horiz-adv-x="1327" d="M141 0v1458h1073v-282h-708v-267h661v-282h-661v-344h770v-283h-1135zM273 1562l233 308h313l236 -308h-268l-125 168l-127 -168h-262z" />
<glyph unicode="&#xcb;" horiz-adv-x="1327" d="M141 0v1458h1073v-282h-708v-267h661v-282h-661v-344h770v-283h-1135zM293 1583v258h307v-258h-307zM727 1583v258h307v-258h-307z" />
<glyph unicode="&#xcc;" horiz-adv-x="647" d="M-55 1870h371l202 -308h-245zM141 0v1458h365v-1458h-365z" />
<glyph unicode="&#xcd;" horiz-adv-x="647" d="M129 1562l203 308h370l-327 -308h-246zM141 0v1458h365v-1458h-365z" />
<glyph unicode="&#xce;" horiz-adv-x="647" d="M-67 1562l233 308h313l236 -308h-268l-125 168l-127 -168h-262zM141 0v1458h365v-1458h-365z" />
<glyph unicode="&#xcf;" horiz-adv-x="647" d="M-47 1583v258h307v-258h-307zM141 0v1458h365v-1458h-365zM387 1583v258h307v-258h-307z" />
<glyph unicode="&#xd0;" horiz-adv-x="1517" d="M-14 639v246h145v573h565q350 0 539 -170q205 -184 205 -559t-205 -559q-188 -170 -539 -170h-565v639h-145zM496 307h209q371 0 370 422q0 422 -370 422h-209v-266h272v-246h-272v-332z" />
<glyph unicode="&#xd1;" horiz-adv-x="1517" d="M141 0v1458h369l530 -932h4v932h332v-1458h-364l-535 918h-4v-918h-332zM373 1575q14 106 75 182q70 88 172 88q57 0 163 -41t132 -41q70 0 88 82h144q-8 -98 -58 -168q-66 -92 -186 -92q-76 0 -170 38t-125 38q-74 0 -90 -86h-145z" />
<glyph unicode="&#xd2;" horiz-adv-x="1630" d="M78 729q0 322 194 539q207 231 543 231t543 -231q194 -217 194 -539t-194 -539q-207 -231 -543 -231t-543 231q-195 217 -194 539zM436 1870h371l202 -308h-245zM442 729q0 -188 80 -311q96 -152 293 -152q188 0 289 148q84 125 84 315q0 193 -84 318q-100 145 -289 145 q-170 0 -266 -109q-106 -119 -107 -354z" />
<glyph unicode="&#xd3;" horiz-adv-x="1630" d="M78 729q0 322 194 539q207 231 543 231t543 -231q194 -217 194 -539t-194 -539q-207 -231 -543 -231t-543 231q-195 217 -194 539zM442 729q0 -188 80 -311q96 -152 293 -152q188 0 289 148q84 125 84 315q0 193 -84 318q-100 145 -289 145q-170 0 -266 -109 q-106 -119 -107 -354zM621 1562l203 308h370l-327 -308h-246z" />
<glyph unicode="&#xd4;" horiz-adv-x="1630" d="M78 729q0 322 194 539q207 231 543 231t543 -231q194 -217 194 -539t-194 -539q-207 -231 -543 -231t-543 231q-195 217 -194 539zM424 1562l233 308h313l236 -308h-268l-125 168l-127 -168h-262zM442 729q0 -188 80 -311q96 -152 293 -152q188 0 289 148q84 125 84 315 q0 193 -84 318q-100 145 -289 145q-170 0 -266 -109q-106 -119 -107 -354z" />
<glyph unicode="&#xd5;" horiz-adv-x="1630" d="M78 729q0 322 194 539q207 231 543 231t543 -231q194 -217 194 -539t-194 -539q-207 -231 -543 -231t-543 231q-195 217 -194 539zM428 1575q14 106 75 182q70 88 172 88q57 0 163 -41t132 -41q70 0 88 82h144q-8 -98 -58 -168q-66 -92 -186 -92q-76 0 -170 38t-125 38 q-74 0 -90 -86h-145zM442 729q0 -188 80 -311q96 -152 293 -152q188 0 289 148q84 125 84 315q0 193 -84 318q-100 145 -289 145q-170 0 -266 -109q-106 -119 -107 -354z" />
<glyph unicode="&#xd6;" horiz-adv-x="1630" d="M78 729q0 322 194 539q207 231 543 231t543 -231q194 -217 194 -539t-194 -539q-207 -231 -543 -231t-543 231q-195 217 -194 539zM442 729q0 -188 80 -311q96 -152 293 -152q188 0 289 148q84 125 84 315q0 193 -84 318q-100 145 -289 145q-170 0 -266 -109 q-106 -119 -107 -354zM444 1583v258h307v-258h-307zM878 1583v258h307v-258h-307z" />
<glyph unicode="&#xd7;" horiz-adv-x="1228" d="M131 203l315 315l-315 316l168 167l315 -315l316 315l168 -167l-318 -316l318 -315l-168 -168l-316 317l-315 -317z" />
<glyph unicode="&#xd8;" horiz-adv-x="1630" d="M10 106l193 177q-125 195 -125 446q0 322 194 539q207 231 543 231q311 0 512 -201l180 164l113 -121l-188 -172q121 -190 120 -440q0 -322 -194 -539q-207 -231 -543 -231q-307 0 -506 195l-182 -166zM442 729q0 -113 31 -203l606 549q-96 117 -264 117 q-170 0 -266 -109q-106 -119 -107 -354zM555 377q90 -111 260 -111q188 0 289 148q84 125 84 315q0 111 -29 195z" />
<glyph unicode="&#xd9;" horiz-adv-x="1517" d="M141 508v950h365v-919q0 -285 252 -285q254 0 254 285v919h364v-950q0 -274 -205 -424q-170 -125 -413 -125q-242 0 -412 125q-205 150 -205 424zM381 1870h371l202 -308h-245z" />
<glyph unicode="&#xda;" horiz-adv-x="1517" d="M141 508v950h365v-919q0 -285 252 -285q254 0 254 285v919h364v-950q0 -274 -205 -424q-170 -125 -413 -125q-242 0 -412 125q-205 150 -205 424zM565 1562l203 308h370l-327 -308h-246z" />
<glyph unicode="&#xdb;" horiz-adv-x="1517" d="M141 508v950h365v-919q0 -285 252 -285q254 0 254 285v919h364v-950q0 -274 -205 -424q-170 -125 -413 -125q-242 0 -412 125q-205 150 -205 424zM369 1562l233 308h313l236 -308h-268l-125 168l-127 -168h-262z" />
<glyph unicode="&#xdc;" horiz-adv-x="1517" d="M141 508v950h365v-919q0 -285 252 -285q254 0 254 285v919h364v-950q0 -274 -205 -424q-170 -125 -413 -125q-242 0 -412 125q-205 150 -205 424zM389 1583v258h307v-258h-307zM823 1583v258h307v-258h-307z" />
<glyph unicode="&#xdd;" horiz-adv-x="1478" d="M4 1458h426l309 -504l310 504h426l-553 -778v-680h-365v680zM545 1562l203 308h370l-327 -308h-246z" />
<glyph unicode="&#xde;" horiz-adv-x="1441" d="M141 0v1458h363v-153h360q539 0 539 -494q0 -190 -117 -319q-158 -174 -491 -175h-285v-317h-369zM506 588h307q117 0 174 67q51 59 51 154q0 225 -235 225h-297v-446z" />
<glyph unicode="&#xdf;" horiz-adv-x="1251" d="M143 0v1032q0 442 496 443q457 0 457 -383q0 -209 -197 -256v-5q287 -14 287 -382q0 -242 -115 -367q-102 -111 -274 -111q-117 0 -207 41v238q66 -33 119 -33q55 0 96 45q61 66 61 215q0 143 -43 201q-53 70 -194 67v173q172 0 172 155q0 180 -162 180q-176 0 -176 -209 v-1044h-320z" />
<glyph unicode="&#xe0;" horiz-adv-x="1214" d="M80 295q0 186 149 283q127 82 410 120l117 17v90q0 117 -152 117q-78 0 -116.5 -33t-51.5 -113h-307q10 342 449 342q240 0 354 -65q131 -76 131 -250v-576q0 -154 29 -227h-295q-16 51 -21 113h-4q-39 -61 -141 -103q-94 -39 -187 -39q-162 0 -260 84q-104 88 -104 240z M229 1520h371l202 -308h-245zM387 328q0 -123 150 -123q98 0 158.5 64.5t60.5 185.5v75l-215 -61q-154 -43 -154 -141z" />
<glyph unicode="&#xe1;" horiz-adv-x="1214" d="M80 295q0 186 149 283q127 82 410 120l117 17v90q0 117 -152 117q-78 0 -116.5 -33t-51.5 -113h-307q10 342 449 342q240 0 354 -65q131 -76 131 -250v-576q0 -154 29 -227h-295q-16 51 -21 113h-4q-39 -61 -141 -103q-94 -39 -187 -39q-162 0 -260 84q-104 88 -104 240z M387 328q0 -123 150 -123q98 0 158.5 64.5t60.5 185.5v75l-215 -61q-154 -43 -154 -141zM414 1212l203 308h370l-327 -308h-246z" />
<glyph unicode="&#xe2;" horiz-adv-x="1214" d="M80 295q0 186 149 283q127 82 410 120l117 17v90q0 117 -152 117q-78 0 -116.5 -33t-51.5 -113h-307q10 342 449 342q240 0 354 -65q131 -76 131 -250v-576q0 -154 29 -227h-295q-16 51 -21 113h-4q-39 -61 -141 -103q-94 -39 -187 -39q-162 0 -260 84q-104 88 -104 240z M218 1212l233 308h313l236 -308h-268l-125 168l-127 -168h-262zM387 328q0 -123 150 -123q98 0 158.5 64.5t60.5 185.5v75l-215 -61q-154 -43 -154 -141z" />
<glyph unicode="&#xe3;" horiz-adv-x="1214" d="M80 295q0 186 149 283q127 82 410 120l117 17v90q0 117 -152 117q-78 0 -116.5 -33t-51.5 -113h-307q10 342 449 342q240 0 354 -65q131 -76 131 -250v-576q0 -154 29 -227h-295q-16 51 -21 113h-4q-39 -61 -141 -103q-94 -39 -187 -39q-162 0 -260 84q-104 88 -104 240z M222 1225q14 106 75 182q70 88 172 88q57 0 163 -41t132 -41q70 0 88 82h144q-8 -98 -58 -168q-66 -92 -186 -92q-76 0 -170 38t-125 38q-74 0 -90 -86h-145zM387 328q0 -123 150 -123q98 0 158.5 64.5t60.5 185.5v75l-215 -61q-154 -43 -154 -141z" />
<glyph unicode="&#xe4;" horiz-adv-x="1214" d="M80 295q0 186 149 283q127 82 410 120l117 17v90q0 117 -152 117q-78 0 -116.5 -33t-51.5 -113h-307q10 342 449 342q240 0 354 -65q131 -76 131 -250v-576q0 -154 29 -227h-295q-16 51 -21 113h-4q-39 -61 -141 -103q-94 -39 -187 -39q-162 0 -260 84q-104 88 -104 240z M238 1233v258h307v-258h-307zM387 328q0 -123 150 -123q98 0 158.5 64.5t60.5 185.5v75l-215 -61q-154 -43 -154 -141zM672 1233v258h307v-258h-307z" />
<glyph unicode="&#xe5;" horiz-adv-x="1214" d="M80 295q0 186 149 283q127 82 410 120l117 17v90q0 117 -152 117q-78 0 -116.5 -33t-51.5 -113h-307q10 342 449 342q240 0 354 -65q131 -76 131 -250v-576q0 -154 29 -227h-295q-16 51 -21 113h-4q-39 -61 -141 -103q-94 -39 -187 -39q-162 0 -260 84q-104 88 -104 240z M379 1417q0 94 67.5 162t162.5 68q94 0 161.5 -68t67.5 -162t-67.5 -161.5t-161.5 -67.5t-162 67.5t-68 161.5zM387 328q0 -123 150 -123q98 0 158.5 64.5t60.5 185.5v75l-215 -61q-154 -43 -154 -141zM502 1417q0 -41 32 -73.5t75 -32.5t74.5 31.5t31.5 74.5t-31.5 75 t-74.5 32t-75 -33t-32 -74z" />
<glyph unicode="&#xe6;" horiz-adv-x="1857" d="M66 303q0 303 358 363l321 53q18 166 -161 166q-137 0 -144 -119h-319q25 352 428 352q229 0 371 -117q158 117 340 117q266 0 407 -184q133 -172 125 -455h-729q0 -113 69.5 -187.5t176.5 -74.5q150 0 239 180l244 -131q-78 -129 -207 -209q-137 -86 -295 -86 q-117 0 -205 36t-190 126q-178 -162 -436 -162q-162 0 -273 84q-121 90 -120 248zM385 338q0 -55 36 -88t93 -33q113 0 176 82q53 68 53 156v71q-106 -29 -213 -57q-145 -45 -145 -131zM1063 676h397q-4 92 -62.5 150.5t-131.5 58.5q-197 0 -203 -209z" />
<glyph unicode="&#xe7;" d="M66 545q0 264 157 422q150 152 383 151q345 0 490 -266l-246 -129q-70 150 -205 149q-248 0 -248 -327q0 -147 60 -234q66 -94 188 -94q162 0 227 160l230 -117q-76 -133 -201 -209q-131 -80 -285 -80q-250 0 -397 150q-154 154 -153 424zM364 -426l43 92q74 -39 166 -39 q106 0 107 80q0 70 -90 70q-55 0 -84 -13l-43 37l114 189h115l-84 -127q41 8 74 8q74 0 127 -37q61 -43 61 -117q0 -82 -59 -135q-72 -61 -203 -61t-244 53z" />
<glyph unicode="&#xe8;" horiz-adv-x="1214" d="M66 512q0 287 142 446.5t392 159.5q279 0 416 -192q117 -166 119 -447h-750q2 -143 82 -215q63 -59 156 -59q84 0 143 47q47 37 123 145l239 -125q-162 -301 -528 -301q-248 0 -393 156q-141 147 -141 385zM229 1520h371l202 -308h-245zM381 676h434q-6 109 -78 164 q-57 45 -139 45q-78 0 -137 -51q-70 -58 -80 -158z" />
<glyph unicode="&#xe9;" horiz-adv-x="1214" d="M66 512q0 287 142 446.5t392 159.5q279 0 416 -192q117 -166 119 -447h-750q2 -143 82 -215q63 -59 156 -59q84 0 143 47q47 37 123 145l239 -125q-162 -301 -528 -301q-248 0 -393 156q-141 147 -141 385zM381 676h434q-6 109 -78 164q-57 45 -139 45q-78 0 -137 -51 q-70 -58 -80 -158zM414 1212l203 308h370l-327 -308h-246z" />
<glyph unicode="&#xea;" horiz-adv-x="1214" d="M66 512q0 287 142 446.5t392 159.5q279 0 416 -192q117 -166 119 -447h-750q2 -143 82 -215q63 -59 156 -59q84 0 143 47q47 37 123 145l239 -125q-162 -301 -528 -301q-248 0 -393 156q-141 147 -141 385zM218 1212l233 308h313l236 -308h-268l-125 168l-127 -168h-262z M381 676h434q-6 109 -78 164q-57 45 -139 45q-78 0 -137 -51q-70 -58 -80 -158z" />
<glyph unicode="&#xeb;" horiz-adv-x="1214" d="M66 512q0 287 142 446.5t392 159.5q279 0 416 -192q117 -166 119 -447h-750q2 -143 82 -215q63 -59 156 -59q84 0 143 47q47 37 123 145l239 -125q-162 -301 -528 -301q-248 0 -393 156q-141 147 -141 385zM238 1233v258h307v-258h-307zM381 676h434q-6 109 -78 164 q-57 45 -139 45q-78 0 -137 -51q-70 -58 -80 -158zM672 1233v258h307v-258h-307z" />
<glyph unicode="&#xec;" horiz-adv-x="606" d="M-76 1520h371l202 -308h-245zM143 0v1090h320v-1090h-320z" />
<glyph unicode="&#xed;" horiz-adv-x="606" d="M109 1212l203 308h370l-327 -308h-246zM143 0v1090h320v-1090h-320z" />
<glyph unicode="&#xee;" horiz-adv-x="606" d="M-88 1212l233 308h313l236 -308h-268l-125 168l-127 -168h-262zM143 0v1090h320v-1090h-320z" />
<glyph unicode="&#xef;" horiz-adv-x="606" d="M-68 1233v258h307v-258h-307zM143 0v1090h320v-1090h-320zM366 1233v258h307v-258h-307z" />
<glyph unicode="&#xf0;" horiz-adv-x="1290" d="M66 510q0 256 161 401q156 139 418 140q76 0 131 -35l4 4q-88 111 -231 207l-197 -115l-114 100l182 105l-166 106l235 162l187 -121l205 121l114 -100l-198 -115q213 -174 309 -346q119 -211 119 -496q0 -293 -195 -440q-154 -117 -385 -117q-262 0 -418 140 q-162 143 -161 399zM385 510q0 -135 66 -217q72 -88 194 -88q121 0 193 88q68 82 67 217q0 139 -61 219q-68 88 -199 88t-199 -88q-61 -80 -61 -219z" />
<glyph unicode="&#xf1;" horiz-adv-x="1251" d="M143 0v1090h320v-97q106 125 315 125q330 0 330 -313v-805h-320v682q0 178 -155 178q-170 0 -170 -182v-678h-320zM240 1225q14 106 75 182q70 88 172 88q57 0 163 -41t132 -41q70 0 88 82h144q-8 -98 -58 -168q-66 -92 -186 -92q-76 0 -170 38t-125 38q-74 0 -90 -86 h-145z" />
<glyph unicode="&#xf2;" horiz-adv-x="1290" d="M66 545q0 270 159.5 421.5t419.5 151.5t420 -151.5t160 -421.5t-160 -422t-420 -152t-419.5 151.5t-159.5 422.5zM266 1520h371l202 -308h-245zM385 545q0 -147 61 -234q68 -94 199 -94q260 0 260 340q0 139 -61 223q-70 92 -199 92q-131 0 -199 -94q-61 -86 -61 -233z " />
<glyph unicode="&#xf3;" horiz-adv-x="1290" d="M66 545q0 270 159.5 421.5t419.5 151.5t420 -151.5t160 -421.5t-160 -422t-420 -152t-419.5 151.5t-159.5 422.5zM385 545q0 -147 61 -234q68 -94 199 -94q260 0 260 340q0 139 -61 223q-70 92 -199 92q-131 0 -199 -94q-61 -86 -61 -233zM451 1212l203 308h370 l-327 -308h-246z" />
<glyph unicode="&#xf4;" horiz-adv-x="1290" d="M66 545q0 270 159.5 421.5t419.5 151.5t420 -151.5t160 -421.5t-160 -422t-420 -152t-419.5 151.5t-159.5 422.5zM254 1212l233 308h313l236 -308h-268l-125 168l-127 -168h-262zM385 545q0 -147 61 -234q68 -94 199 -94q260 0 260 340q0 139 -61 223q-70 92 -199 92 q-131 0 -199 -94q-61 -86 -61 -233z" />
<glyph unicode="&#xf5;" horiz-adv-x="1290" d="M66 545q0 270 159.5 421.5t419.5 151.5t420 -151.5t160 -421.5t-160 -422t-420 -152t-419.5 151.5t-159.5 422.5zM258 1225q14 106 75 182q70 88 172 88q57 0 163 -41t132 -41q70 0 88 82h144q-8 -98 -58 -168q-66 -92 -186 -92q-76 0 -170 38t-125 38q-74 0 -90 -86 h-145zM385 545q0 -147 61 -234q68 -94 199 -94q260 0 260 340q0 139 -61 223q-70 92 -199 92q-131 0 -199 -94q-61 -86 -61 -233z" />
<glyph unicode="&#xf6;" horiz-adv-x="1290" d="M66 545q0 270 159.5 421.5t419.5 151.5t420 -151.5t160 -421.5t-160 -422t-420 -152t-419.5 151.5t-159.5 422.5zM274 1233v258h307v-258h-307zM385 545q0 -147 61 -234q68 -94 199 -94q260 0 260 340q0 139 -61 223q-70 92 -199 92q-131 0 -199 -94q-61 -86 -61 -233z M708 1233v258h307v-258h-307z" />
<glyph unicode="&#xf7;" horiz-adv-x="1228" d="M96 395v246h1037v-246h-1037zM424 94q0 78 56.5 134.5t133.5 56.5q78 0 134.5 -56.5t56.5 -134.5t-56.5 -134t-134.5 -56t-134 56t-56 134zM424 942q0 78 56.5 134.5t133.5 56.5q78 0 134.5 -56.5t56.5 -134.5t-56.5 -134t-134.5 -56t-134 56t-56 134z" />
<glyph unicode="&#xf8;" horiz-adv-x="1290" d="M-4 84l156 131q-86 137 -86 330q0 270 159.5 421.5t419.5 151.5q250 0 408 -141l155 133l86 -96l-159 -133q90 -141 90 -336q0 -270 -160 -422t-420 -152q-256 0 -412 146l-151 -129zM385 545q0 -66 12 -121l437 369q-66 80 -189 79q-131 0 -199 -94q-61 -86 -61 -233z M455 303q68 -86 190 -86q260 0 260 340q0 68 -14 117z" />
<glyph unicode="&#xf9;" horiz-adv-x="1251" d="M143 285v805h320v-713q0 -147 155 -148q170 0 170 170v691h320v-1090h-320v96q-106 -125 -315 -125q-330 0 -330 314zM248 1520h371l202 -308h-245z" />
<glyph unicode="&#xfa;" horiz-adv-x="1251" d="M143 285v805h320v-713q0 -147 155 -148q170 0 170 170v691h320v-1090h-320v96q-106 -125 -315 -125q-330 0 -330 314zM432 1212l203 308h370l-327 -308h-246z" />
<glyph unicode="&#xfb;" horiz-adv-x="1251" d="M143 285v805h320v-713q0 -147 155 -148q170 0 170 170v691h320v-1090h-320v96q-106 -125 -315 -125q-330 0 -330 314zM236 1212l233 308h313l236 -308h-268l-125 168l-127 -168h-262z" />
<glyph unicode="&#xfc;" horiz-adv-x="1251" d="M143 285v805h320v-713q0 -147 155 -148q170 0 170 170v691h320v-1090h-320v96q-106 -125 -315 -125q-330 0 -330 314zM256 1233v258h307v-258h-307zM690 1233v258h307v-258h-307z" />
<glyph unicode="&#xfd;" horiz-adv-x="1024" d="M-8 1090h336l176 -832h4l178 832h346l-383 -1162q-47 -143 -106 -207q-76 -82 -207 -81h-252v249q74 -4 109 -4q147 0 147 80q0 27 -29 117zM225 1212l203 308h370l-327 -308h-246z" />
<glyph unicode="&#xfe;" horiz-adv-x="1251" d="M129 -360v1818h320v-428q111 88 264 88q217 0 342 -137q131 -143 131 -399q0 -301 -127 -456t-352 -155q-72 0 -152 32t-102 67h-4v-430h-320zM424 545q0 -340 221 -340t221 340t-221 340t-221 -340z" />
<glyph unicode="&#xff;" horiz-adv-x="1024" d="M-8 1090h336l176 -832h4l178 832h346l-383 -1162q-47 -143 -106 -207q-76 -82 -207 -81h-252v249q74 -4 109 -4q147 0 147 80q0 27 -29 117zM141 1233v258h307v-258h-307zM575 1233v258h307v-258h-307z" />
<glyph unicode="&#x131;" horiz-adv-x="606" d="M143 0v1090h320v-1090h-320z" />
<glyph unicode="&#x141;" d="M41 479v205l100 64v710h365v-487l287 176v-211l-287 -176v-453h569v-307h-934v541z" />
<glyph unicode="&#x142;" horiz-adv-x="606" d="M12 475v213l131 94v676h320v-444l131 94v-213l-131 -94v-801h-320v569z" />
<glyph unicode="&#x152;" horiz-adv-x="2275" d="M78 702q0 358 184 563t494 205q166 0 282 -73v61h1098v-282h-733v-267h686v-282h-686v-344h795v-283h-1160v47q-96 -59 -280 -59q-305 0 -490 190q-190 195 -190 524zM442 729q0 -215 103 -340q96 -119 260 -119q131 1 233 56v800q-86 61 -204 62q-391 0 -392 -459z" />
<glyph unicode="&#x153;" horiz-adv-x="1933" d="M66 545q0 293 167 444q143 129 371 129q205 0 373 -135q152 135 358 135q266 0 408 -184q133 -172 125 -455h-729q0 -113 69.5 -187.5t175.5 -74.5q150 0 240 180l244 -131q-78 -129 -207 -209q-137 -86 -295 -86q-219 0 -387 156q-150 -156 -375 -156q-217 0 -358 115 q-180 147 -180 459zM385 530q0 -313 231 -313q215 0 215 342q0 313 -219 313q-123 0 -182 -114q-45 -90 -45 -228zM1139 676h397q-4 92 -62.5 150.5t-132.5 58.5q-196 0 -202 -209z" />
<glyph unicode="&#x160;" horiz-adv-x="1402" d="M4 256l279 180q203 -182 422 -182q94 0 172 37q100 47 100 131q0 102 -164 129l-303 49q-418 68 -418 401q0 248 182 381q160 117 414 117q391 0 643 -280l-276 -199q-152 184 -391 184q-72 0 -136 -39q-72 -43 -71 -108q0 -106 202 -139l140 -23q252 -41 375 -121 q156 -102 155 -295q0 -293 -231 -424q-170 -96 -436 -96q-386 0 -658 297zM312 1870h262l127 -168l125 168h268l-236 -308h-313z" />
<glyph unicode="&#x161;" d="M33 186l198 172q160 -154 344 -153q174 0 175 110q0 66 -168 99q-246 51 -310 80q-168 76 -168 243q0 190 148 293q125 88 313 88q246 1 482 -157l-197 -193q-45 53 -137 86q-82 31 -164 31q-137 0 -137 -84q0 -72 168 -107q250 -53 309 -80q168 -78 168 -254 q0 -199 -156 -301q-133 -88 -336 -88q-172 0 -295 54q-113 47 -237 161zM179 1520h262l127 -168l125 168h268l-236 -308h-313z" />
<glyph unicode="&#x178;" horiz-adv-x="1478" d="M4 1458h426l309 -504l310 504h426l-553 -778v-680h-365v680zM369 1583v258h307v-258h-307zM803 1583v258h307v-258h-307z" />
<glyph unicode="&#x17d;" horiz-adv-x="1402" d="M74 0v272l811 904h-748v282h1192v-284l-801 -891h797v-283h-1251zM312 1870h262l127 -168l125 168h268l-236 -308h-313z" />
<glyph unicode="&#x17e;" horiz-adv-x="1175" d="M94 0v258l580 586h-516v246h923v-259l-579 -585h575v-246h-983zM197 1520h262l127 -168l125 168h268l-236 -308h-313z" />
<glyph unicode="&#x192;" d="M61 -344l29 264q33 -23 96 -18q121 8 136 127l67 534h-227l28 209h226l45 350q20 164 151 246q92 57 195 57q123 1 229 -36l-37 -265q-47 18 -96 19q-137 0 -160 -178l-24 -193h250l-25 -209h-252l-59 -504q-51 -440 -379 -440q-117 0 -193 37z" />
<glyph unicode="&#x2c6;" horiz-adv-x="569" d="M-106 1212l233 308h313l236 -308h-268l-125 168l-127 -168h-262z" />
<glyph unicode="&#x2da;" horiz-adv-x="569" d="M55 1417q0 94 67.5 162t162.5 68q94 0 161.5 -68t67.5 -162t-67.5 -161.5t-161.5 -67.5t-162 67.5t-68 161.5zM178 1417q0 -41 32 -73.5t75 -32.5t74.5 31.5t31.5 74.5t-31.5 75t-74.5 32t-75 -33t-32 -74z" />
<glyph unicode="&#x2dc;" horiz-adv-x="569" d="M-102 1225q14 106 75 182q70 88 172 88q57 0 163 -41t132 -41q70 0 88 82h144q-8 -98 -58 -168q-66 -92 -186 -92q-76 0 -170 38t-125 38q-74 0 -90 -86h-145z" />
<glyph unicode="&#x2000;" horiz-adv-x="979" />
<glyph unicode="&#x2001;" horiz-adv-x="1958" />
<glyph unicode="&#x2002;" horiz-adv-x="979" />
<glyph unicode="&#x2003;" horiz-adv-x="1958" />
<glyph unicode="&#x2004;" horiz-adv-x="652" />
<glyph unicode="&#x2005;" horiz-adv-x="489" />
<glyph unicode="&#x2006;" horiz-adv-x="326" />
<glyph unicode="&#x2007;" horiz-adv-x="326" />
<glyph unicode="&#x2008;" horiz-adv-x="244" />
<glyph unicode="&#x2009;" horiz-adv-x="391" />
<glyph unicode="&#x200a;" horiz-adv-x="108" />
<glyph unicode="&#x2010;" horiz-adv-x="720" d="M106 418v295h508v-295h-508z" />
<glyph unicode="&#x2011;" horiz-adv-x="720" d="M106 418v295h508v-295h-508z" />
<glyph unicode="&#x2012;" horiz-adv-x="720" d="M106 418v295h508v-295h-508z" />
<glyph unicode="&#x2013;" horiz-adv-x="1024" d="M0 424v283h1024v-283h-1024z" />
<glyph unicode="&#x2014;" horiz-adv-x="2048" d="M0 424v283h2048v-283h-2048z" />
<glyph unicode="&#x2018;" horiz-adv-x="569" d="M119 754v344q0 147 96 245q86 86 229 115v-149q-129 -35 -129 -211h136v-344h-332z" />
<glyph unicode="&#x2019;" horiz-adv-x="569" d="M119 1114v344h332v-344q0 -147 -97 -244q-86 -87 -229 -116v149q129 35 129 211h-135z" />
<glyph unicode="&#x201a;" horiz-adv-x="569" d="M119 0v344h332v-344q0 -147 -97 -246q-86 -85 -229 -114v149q129 35 129 211h-135z" />
<glyph unicode="&#x201c;" horiz-adv-x="985" d="M88 754v344q0 147 96 245q87 86 230 115v-149q-129 -35 -129 -211h135v-344h-332zM565 754v344q0 147 97 245q86 86 229 115v-149q-129 -35 -129 -211h135v-344h-332z" />
<glyph unicode="&#x201d;" horiz-adv-x="985" d="M88 1114v344h332v-344q0 -147 -96 -244q-87 -87 -230 -116v149q129 35 129 211h-135zM565 1114v344h332v-344q0 -147 -96 -244q-87 -87 -230 -116v149q129 35 129 211h-135z" />
<glyph unicode="&#x201e;" horiz-adv-x="985" d="M88 0v344h332v-344q0 -147 -96 -246q-87 -85 -230 -114v149q129 35 129 211h-135zM565 0v344h332v-344q0 -147 -96 -246q-87 -85 -230 -114v149q129 35 129 211h-135z" />
<glyph unicode="&#x2020;" d="M47 709v270h381v479h283v-479h381v-270h-381v-963h-283v963h-381z" />
<glyph unicode="&#x2021;" d="M98 121v258h330v475h-330v258h330v346h283v-346h329v-258h-329v-475h329v-258h-329v-375h-283v375h-330z" />
<glyph unicode="&#x2022;" horiz-adv-x="1024" d="M147 729q0 152 107.5 258.5t257.5 106.5q152 0 258.5 -106.5t106.5 -258.5q0 -150 -106.5 -257t-258.5 -107q-150 0 -257.5 107t-107.5 257z" />
<glyph unicode="&#x2026;" horiz-adv-x="2048" d="M182 0v344h332v-344h-332zM858 0v344h332v-344h-332zM1534 0v344h332v-344h-332z" />
<glyph unicode="&#x202f;" horiz-adv-x="391" />
<glyph unicode="&#x2030;" horiz-adv-x="2048" d="M37 1057q0 190 92 289q76 80 188 79q121 0 193 -79q88 -96 88 -289t-90 -289q-76 -80 -191 -80q-125 0 -202.5 102.5t-77.5 266.5zM221 1057q0 -197 96 -197t97 197q0 84 -28 140t-69 56q-96 0 -96 -196zM250 -29l797 1506l120 -52l-798 -1505zM795 340q0 190 92 289 q76 80 188 80q121 0 193 -80q88 -96 88 -289t-90 -289q-76 -80 -191 -80q-125 0 -202.5 102.5t-77.5 266.5zM979 340q0 -197 96 -197t96 197q0 84 -27.5 140.5t-68.5 56.5q-96 0 -96 -197zM1450 340q0 190 92 289q76 80 189 80q121 0 192 -80q88 -96 88 -289t-90 -289 q-75 -80 -190 -80q-125 0 -203 102.5t-78 266.5zM1634 340q1 -197 97 -197t96 197q0 84 -27.5 140.5t-68.5 56.5q-96 0 -97 -197z" />
<glyph unicode="&#x2039;" horiz-adv-x="454" d="M80 438v254l295 234v-262l-123 -99l123 -98v-262z" />
<glyph unicode="&#x203a;" horiz-adv-x="454" d="M80 205v262l123 98l-123 99v262l295 -234v-254z" />
<glyph unicode="&#x2044;" horiz-adv-x="342" d="M-344 -74l850 1544h180l-850 -1544h-180z" />
<glyph unicode="&#x205f;" horiz-adv-x="489" />
<glyph unicode="&#x2122;" horiz-adv-x="2048" d="M37 1274v184h704v-184h-229v-660h-246v660h-229zM885 614v844h319l182 -491l183 491h319v-844h-221v549h-4l-186 -549h-181l-186 549h-4v-549h-221z" />
<glyph unicode="&#x25fc;" horiz-adv-x="1085" d="M0 0v1085h1085v-1085h-1085z" />
</font>
</defs>
</svg>
