<?xml version="1.0" standalone="no"?>
<!DOCTYPE svg PUBLIC "-//W3C//DTD SVG 1.1//EN" "http://www.w3.org/Graphics/SVG/1.1/DTD/svg11.dtd" >
<svg xmlns="http://www.w3.org/2000/svg" xmlns:xlink="http://www.w3.org/1999/xlink" version="1.1">
<metadata></metadata>
<defs>
<font id="equitan_sansbold" horiz-adv-x="970" >
<font-face units-per-em="2048" ascent="1554" descent="-494" />
<missing-glyph horiz-adv-x="348" />
<glyph unicode="&#xfb01;" horiz-adv-x="1101" d="M23 678v213h92q32 0 32 31v49q0 174 89.5 262t246.5 88q97 0 152 -27l-51 -204q-24 12 -64 12q-62 0 -90.5 -37.5t-28.5 -118.5v-55h578v-891h-254v678h-324v-678h-254v678h-124zM690 1167q0 66 44.5 107t117.5 41q75 0 119.5 -41t44.5 -107q0 -68 -44.5 -108.5 t-119.5 -40.5q-73 0 -117.5 40.5t-44.5 108.5z" />
<glyph unicode="&#xfb02;" horiz-adv-x="1114" d="M23 678v213h92q32 0 32 31v49q0 174 89.5 262t246.5 88q88 0 160 -35l-51 -203q-32 19 -72 19q-119 0 -119 -156v-55h185v-213h-185v-678h-254v678h-124zM739 0v1307h254v-1307h-254z" />
<glyph horiz-adv-x="0" />
<glyph unicode="&#xd;" horiz-adv-x="681" />
<glyph unicode=" "  horiz-adv-x="348" />
<glyph unicode="&#x09;" horiz-adv-x="348" />
<glyph unicode="&#xa0;" horiz-adv-x="348" />
<glyph unicode="!" horiz-adv-x="591" d="M127 125q0 66 46.5 105.5t121.5 39.5q76 0 123 -39.5t47 -105.5q0 -68 -46 -108t-124 -40q-75 0 -121.5 40.5t-46.5 107.5zM172 762v516h252v-514q0 -132 -41 -399h-170q-41 270 -41 397z" />
<glyph unicode="&#x22;" horiz-adv-x="718" d="M74 1241h256l-41 -473h-172zM387 1241h256l-41 -473h-172z" />
<glyph unicode="#" horiz-adv-x="1306" d="M123 193v190h192v285h-192v190h192v195h199v-195h277v195h198v-195h195v-190h-195v-285h195v-190h-195v-193h-198v193h-277v-193h-199v193h-192zM514 383h277v285h-277v-285z" />
<glyph unicode="$" horiz-adv-x="1105" d="M70 352l249 10q21 -114 170 -141v283q-7 1 -28.5 5t-27.5 5t-23 4t-23.5 4.5t-21 5t-23 6t-21 6t-24.5 8t-25 9.5q-53 19 -92 53q-86 75 -86 193q0 148 99.5 233t271.5 99v176h180v-181q173 -20 265 -104.5t98 -230.5l-230 -23q-13 73 -51 114t-106 58v-272 q146 -25 227 -56q57 -22 98 -55q40 -35 65 -89t25 -118q0 -153 -112 -231q-112 -81 -279 -96v-195h-180v195q-371 34 -395 325zM332 831q0 -55 39 -86t118 -49v254q-75 -4 -116 -36t-41 -83zM621 217q167 18 167 135q0 52 -40 80.5t-127 48.5v-264z" />
<glyph unicode="%" horiz-adv-x="1509" d="M45 690q0 126 86 203q84 78 223 78q136 0 220.5 -75.5t84.5 -197.5q0 -129 -85.5 -206.5t-225.5 -77.5q-138 0 -219 75q-84 78 -84 201zM227 692q0 -56 32.5 -89.5t86.5 -33.5q57 0 94 35t37 90q0 54 -35 86.5t-92 32.5q-54 0 -88.5 -33.5t-34.5 -87.5zM322 0l669 948 h199l-670 -948h-198zM850 252q0 127 84.5 203.5t224.5 76.5q135 0 219 -74.5t84 -197.5q0 -127 -86.5 -205t-226.5 -78q-136 0 -217.5 75t-81.5 200zM1034 278q-6 -38 6 -71t42 -55.5t69 -18.5q57 0 93 34.5t36 88.5t-34.5 87.5t-90.5 33.5q-53 0 -88 -35q-27 -26 -33 -64z " />
<glyph unicode="&#x26;" horiz-adv-x="1409" d="M39 315q0 252 305 344q-131 149 -131 271q0 158 123 246q122 88 313 88q184 0 289.5 -77.5t105.5 -213.5q0 -246 -346 -357l4 -4l238 -239q130 142 168 342l229 2q-55 -278 -250 -479q79 -54 148 -54q44 0 84 19l49 -199q-71 -27 -160 -27q-166 0 -307 111 q-188 -111 -383 -111q-479 0 -479 338zM311 350q0 -86 56 -134t159 -48q107 0 228 59l-262 275q-4 4 -19.5 20.5t-19.5 20.5q-142 -65 -142 -193zM481 936q0 -88 94 -195q101 31 162 86t62 127q0 56 -41 91.5t-109 35.5q-75 0 -121.5 -39t-46.5 -106z" />
<glyph unicode="'" horiz-adv-x="405" d="M74 1241h256l-41 -473h-172z" />
<glyph unicode="(" horiz-adv-x="698" d="M53 547q0 380 154 581q150 199 368 199h66v-182h-41q-152 0 -242 -155t-90 -437q0 -274 90 -425t242 -151h41v-182h-68q-218 0 -368 191q-152 193 -152 561z" />
<glyph unicode=")" horiz-adv-x="698" d="M57 -23h43q151 0 241.5 154.5t90.5 435.5q0 273 -90.5 425.5t-241.5 152.5h-43v182h68q219 0 369 -190q151 -195 151 -566q0 -378 -151 -579q-153 -197 -369 -197h-68v182z" />
<glyph unicode="*" horiz-adv-x="821" d="M45 995l53 166l219 -63l7 229h174l8 -229l217 65l53 -166l-215 -75l129 -189l-141 -100l-137 178l-140 -180l-139 102l127 189z" />
<glyph unicode="+" d="M80 424v178h303v322h197v-322h309v-178h-309v-324h-197v324h-303z" />
<glyph unicode="," horiz-adv-x="512" d="M59 121q0 70 49 108.5t125 38.5q95 0 153 -65.5t58 -165.5q0 -269 -317 -328l-43 117q194 53 197 176q0 24 -9 39q-21 -43 -94 -43q-52 0 -85.5 33.5t-33.5 89.5z" />
<glyph unicode="-" horiz-adv-x="598" d="M70 391v209h456v-209h-456z" />
<glyph unicode="." horiz-adv-x="481" d="M74 141q0 72 46 117t120 45q75 0 121.5 -45t46.5 -117q0 -73 -46.5 -118.5t-121.5 -45.5q-74 0 -120 45.5t-46 118.5z" />
<glyph unicode="/" horiz-adv-x="763" d="M-37 -205l623 1532h182l-625 -1532h-180z" />
<glyph unicode="0" horiz-adv-x="1062" d="M49 465q0 225 133 364q132 138 361 138q215 0 342 -136q127 -139 127 -360q0 -228 -130.5 -359.5t-357.5 -131.5q-218 0 -346 131q-129 129 -129 354zM315 467q0 -131 56.5 -208t152.5 -77q103 0 162 76t59 207q0 135 -59 216t-156 81q-100 0 -157.5 -79t-57.5 -216z" />
<glyph unicode="1" horiz-adv-x="655" d="M16 793l303 155h201v-948h-254v694l-182 -78z" />
<glyph unicode="2" horiz-adv-x="999" d="M72 625q0 159 113.5 250.5t314.5 91.5q189 0 299 -74t110 -209q0 -130 -121 -233q-40 -35 -210 -144l-150 -96h496v-211h-850v205l293 182q97 62 110 70q55 34 86 61q76 63 76 129q0 117 -156 117q-174 0 -174 -156q0 -16 2 -20h-237q-2 10 -2 37z" />
<glyph unicode="3" horiz-adv-x="978" d="M41 70l238 2q9 -185 190 -185q81 0 135.5 49.5t54.5 131.5q0 174 -217 174q-24 0 -98 -9l-2 191q148 12 218.5 60.5t70.5 138.5q0 71 -44.5 108t-119.5 37q-85 0 -130.5 -45t-45.5 -121v-18h-234v30q0 159 115 256t309 97q186 0 300 -85.5t114 -224.5q0 -251 -283 -292 v-7q139 0 226.5 -79t87.5 -218q0 -171 -124.5 -273.5t-334.5 -102.5q-197 0 -311.5 96.5t-114.5 288.5z" />
<glyph unicode="4" horiz-adv-x="1009" d="M27 39v192l485 717h315v-702h148v-207h-148v-332h-243v332h-557zM274 246h310v436h-15z" />
<glyph unicode="5" horiz-adv-x="962" d="M61 43l234 4q27 -162 182 -162q84 0 136.5 62t52.5 170q0 109 -48.5 166t-134.5 57q-121 0 -174 -111l-207 25v694h772v-219h-571v-293q83 99 242 99q175 0 278 -103.5t103 -296.5q0 -213 -125 -332q-124 -118 -328 -118q-176 0 -285.5 90t-126.5 268z" />
<glyph unicode="6" horiz-adv-x="1062" d="M70 586q0 322 130.5 500t374.5 178q192 0 295 -92.5t109 -262.5l-240 -10q-24 176 -178 176q-115 0 -173 -103t-58 -300v-17q89 142 278 142q182 0 285.5 -104.5t103.5 -284.5q0 -200 -123 -314t-333 -114q-471 0 -471 606zM348 387q0 -96 54 -154.5t139 -58.5 q90 0 141 58.5t51 156.5q0 97 -51 155t-137 58q-88 0 -142.5 -58.5t-54.5 -156.5z" />
<glyph unicode="7" horiz-adv-x="890" d="M27 717v229h825v-192l-463 -1055h-262l469 1018h-569z" />
<glyph unicode="8" horiz-adv-x="1071" d="M61 340q0 133 71 212.5t200 98.5v11q-120 17 -180 88.5t-60 183.5q0 148 121.5 239t321.5 91t321 -91t121 -241q0 -108 -61.5 -180t-180.5 -90v-9q126 -19 200.5 -98t74.5 -205q0 -173 -127.5 -271.5t-347.5 -98.5q-222 0 -348 95t-126 265zM328 360q0 -90 56.5 -142 t150.5 -52q93 0 149.5 51t56.5 141q0 88 -56 141.5t-148 53.5q-93 0 -151 -54t-58 -139zM356 924q0 -81 50 -130t129 -49q80 0 130 48t50 129q0 73 -50 119t-130 46q-77 0 -128 -47t-51 -116z" />
<glyph unicode="9" horiz-adv-x="1073" d="M68 551q0 186 127 301t331 115q228 0 351.5 -151t123.5 -456q0 -322 -130.5 -498.5t-376.5 -176.5q-196 0 -300 91t-110 259l242 10q14 -88 57 -129t127 -41q225 0 225 391v19q-92 -133 -266 -133q-188 0 -294.5 107.5t-106.5 291.5zM332 559q0 -97 50.5 -155t137.5 -58 q91 0 143 57.5t52 157.5q0 92 -52.5 150.5t-134.5 58.5q-91 0 -143.5 -58t-52.5 -153z" />
<glyph unicode=":" horiz-adv-x="483" d="M74 141q0 72 46 117t120 45q75 0 121.5 -45t46.5 -117q0 -73 -46.5 -118.5t-121.5 -45.5q-74 0 -120 45.5t-46 118.5zM74 715q0 72 46 117t120 45q75 0 121.5 -45t46.5 -117q0 -73 -46.5 -118.5t-121.5 -45.5q-74 0 -120 45.5t-46 118.5z" />
<glyph unicode=";" horiz-adv-x="516" d="M61 121q0 70 49 108.5t126 38.5q95 0 152.5 -65.5t57.5 -165.5q0 -269 -317 -328l-43 117q194 53 197 176q0 24 -9 39q-21 -43 -94 -43q-52 0 -85.5 33.5t-33.5 89.5zM82 715q0 72 46 117t120 45q75 0 121.5 -45t46.5 -117q0 -73 -46.5 -118.5t-121.5 -45.5 q-74 0 -120 45.5t-46 118.5z" />
<glyph unicode="&#x3c;" d="M127 418v176l692 280v-204l-416 -154v-14l424 -144v-204z" />
<glyph unicode="=" d="M96 233v181h776v-181h-776zM96 575v181h776v-181h-776z" />
<glyph unicode="&#x3e;" d="M141 662v206l701 -266v-174l-692 -283v205l415 154v14z" />
<glyph unicode="?" horiz-adv-x="1038" d="M51 989q0 154 127 234t348 80q215 0 339 -78t124 -209q0 -58 -26 -111t-62 -88q-42 -36 -96 -59q-18 -9 -32.5 -15.5t-25 -11t-24.5 -9.5t-20 -7.5t-23 -7.5t-23 -7t-29.5 -8.5t-33.5 -9.5q-7 -2 -22 -7t-20.5 -6.5t-17 -5t-15.5 -5t-13 -5t-12.5 -5.5t-10 -5t-11 -6 t-9.5 -6.5t-10 -7.5q-25 -22 -25 -45q0 -58 88 -58q59 0 143 41l54 -141q-82 -64 -232 -64q-299 0 -299 213q0 121 101 185q78 47 229 92q114 34 160.5 64.5t46.5 86.5q0 54 -50 82.5t-141 28.5q-225 0 -225 -141q0 -27 6 -45l-250 -11q-8 24 -8 78zM293 125q0 66 47 105.5 t123 39.5q75 0 121.5 -39.5t46.5 -105.5q0 -67 -46.5 -107.5t-121.5 -40.5q-78 0 -124 40t-46 108z" />
<glyph unicode="@" horiz-adv-x="1832" d="M92 387q0 326 223 549q225 225 621 225q387 0 594 -192q209 -194 209 -484q0 -232 -109 -364.5t-309 -132.5q-91 0 -151 45.5t-60 126.5v18q-64 -190 -311 -190q-120 0 -193.5 58.5t-73.5 162.5q0 262 377 262h140v47q0 65 -38 99t-106 34q-140 0 -155 -116l-199 12 q17 134 112.5 205t256.5 71q354 0 354 -299v-282q0 -105 82 -105q77 0 131.5 85t54.5 257q0 233 -153 377q-154 145 -453 145q-313 0 -481 -174t-168 -436q0 -134 34.5 -239.5t104 -182t180.5 -117.5t258 -42q88 0 195 22l16 -162q-88 -24 -205 -24q-195 1 -343 52 t-243.5 147.5t-143.5 232.5t-48 309zM762 236q0 -82 100 -82q79 0 135 51t56 139h-113q-178 0 -178 -108z" />
<glyph unicode="A" horiz-adv-x="1273" d="M6 0l455 1241h356l449 -1241h-289l-100 299h-494l-100 -299h-277zM459 522h342l-160 475h-20z" />
<glyph unicode="B" horiz-adv-x="1200" d="M121 0v1241h569q418 0 418 -301q0 -118 -72 -192t-211 -91v-10q148 0 234 -78t86 -211q0 -166 -113 -262t-315 -96h-596zM381 211h252q108 0 165.5 43.5t57.5 122.5q0 72 -54 113.5t-147 41.5h-274v-321zM381 737h219q113 0 173.5 42.5t60.5 113.5q0 64 -48.5 100.5 t-138.5 36.5h-266v-293z" />
<glyph unicode="C" horiz-adv-x="1302" d="M53 610q0 306 170 482q169 172 453 172q250 0 407 -127t160 -377l-260 -8q-27 295 -313 295q-164 0 -256 -113.5t-92 -312.5q0 -201 92.5 -311.5t255.5 -110.5q127 0 207.5 67t103.5 191l262 -13q-23 -224 -175 -345.5t-404 -121.5q-288 0 -449.5 168t-161.5 465z" />
<glyph unicode="D" horiz-adv-x="1302" d="M121 0v1241h504q294 0 457 -150.5t163 -439.5q0 -294 -182 -473q-184 -178 -512 -178h-430zM381 229h182q191 0 302.5 111.5t111.5 300.5q0 177 -99.5 274t-279.5 97h-217v-783z" />
<glyph unicode="E" horiz-adv-x="1112" d="M121 0v1241h913v-223h-653v-285h543v-221h-543v-291h657v-221h-917z" />
<glyph unicode="F" horiz-adv-x="1060" d="M121 0v1241h883v-223h-623v-311h532v-224h-532v-483h-260z" />
<glyph unicode="G" horiz-adv-x="1404" d="M55 604q0 314 168 487t475 173q159 0 276 -40.5t202 -138.5q89 -102 98 -260l-266 -20q-35 244 -322 244q-168 0 -265 -116t-97 -319t94.5 -312t265.5 -109q212 0 301 159q28 49 37 105h-348v202h614v-659h-225l-19 190q-118 -213 -401 -213q-277 0 -432.5 164.5 t-155.5 462.5z" />
<glyph unicode="H" horiz-adv-x="1339" d="M121 0v1241h260v-504h577v504h259v-1241h-259v504h-577v-504h-260z" />
<glyph unicode="I" horiz-adv-x="503" d="M121 0v1241h260v-1241h-260z" />
<glyph unicode="J" horiz-adv-x="1058" d="M57 334v110h248v-75q0 -77 52.5 -124.5t146.5 -47.5q92 0 145 52.5t53 149.5v619h-368v223h627v-823q0 -226 -123 -333.5t-344 -107.5q-188 0 -314 97q-123 94 -123 260z" />
<glyph unicode="K" horiz-adv-x="1226" d="M121 0v1241h260v-590h16l504 590h301l-481 -561l518 -680h-334l-360 498l-164 -193v-305h-260z" />
<glyph unicode="L" horiz-adv-x="985" d="M121 0v1241h260v-1010h559v-231h-819z" />
<glyph unicode="M" horiz-adv-x="1757" d="M121 0v1241h434l322 -1001h14l319 1001h424v-1241h-250v983h-22l-318 -983h-329l-320 971h-22v-971h-252z" />
<glyph unicode="N" horiz-adv-x="1320" d="M115 0v1241h336l389 -631q60 -93 116 -219h13v850h237v-1241h-291l-548 918h-15v-918h-237z" />
<glyph unicode="O" horiz-adv-x="1396" d="M57 625q0 291 176 467q175 172 474 172q292 0 462 -170q170 -173 170 -465q0 -301 -174 -475q-177 -177 -479 -177q-291 0 -461 173q-168 171 -168 475zM326 623q0 -202 100 -314q98 -116 266 -116q179 0 279 115t100 317q0 197 -97 310.5t-267 113.5q-178 0 -279 -113 q-102 -114 -102 -313z" />
<glyph unicode="P" horiz-adv-x="1122" d="M121 0v1241h518q212 0 331.5 -93.5t119.5 -275.5q0 -202 -124.5 -312.5t-342.5 -110.5h-242v-449h-260zM381 672h213q109 0 168 49t59 135q0 77 -48.5 120.5t-143.5 43.5h-248v-348z" />
<glyph unicode="Q" horiz-adv-x="1390" d="M57 625q0 293 174 467q175 172 474 172q294 0 460 -168t166 -465q0 -233 -108.5 -392t-307.5 -219l41 -45q39 -51 117 -51q60 0 101 41l88 -190q-30 -34 -86.5 -54t-114.5 -20q-96 0 -170 38.5t-156 137.5l-94 111q-278 13 -431 180.5t-153 456.5zM319 625 q0 -194 101.5 -307t269.5 -113q178 0 277.5 112.5t99.5 311.5q0 195 -97.5 307.5t-264.5 112.5q-179 0 -282.5 -113t-103.5 -311z" />
<glyph unicode="R" horiz-adv-x="1265" d="M121 0v1241h622q190 0 302 -89.5t112 -246.5q0 -145 -78 -223.5t-227 -89.5v-6q107 -11 160.5 -57.5t60.5 -143.5l8 -104q9 -97 84 -97h23l6 -186q-53 -16 -125 -16q-114 0 -175 51t-71 166l-10 129q-12 145 -186 145h-246v-473h-260zM381 692h258q119 0 184.5 48 t65.5 126q0 168 -217 168h-291v-342z" />
<glyph unicode="S" horiz-adv-x="1165" d="M55 377l277 8q24 -195 266 -195q107 0 169 40.5t62 119.5q0 87 -84 127q-75 34 -192 55q-227 44 -307 86q-160 86 -160 277q0 187 139 279q140 90 338 90q254 0 384 -101t130 -289l-256 -18q-7 109 -69 156t-189 47q-103 0 -160 -36.5t-57 -100.5q0 -82 80 -117 q9 -4 17.5 -8t18.5 -7.5t16 -6t18.5 -6t17.5 -5t21.5 -5.5t22 -5.5t27.5 -6.5t29 -7q31 -6 73.5 -16t49.5 -11q34 -7 111 -31q64 -21 102 -45q149 -95 149 -255q0 -10 -1 -21q0 -88 -31 -157.5t-80 -112.5t-115 -71.5t-130.5 -39.5t-131.5 -11q-549 0 -555 400z" />
<glyph unicode="T" horiz-adv-x="1110" d="M16 1010v231h1078v-231h-410v-1010h-258v1010h-410z" />
<glyph unicode="U" horiz-adv-x="1280" d="M104 483v758h261v-721q0 -317 282 -317q128 0 198 80t70 229v729h259v-758q0 -243 -138.5 -374.5t-390.5 -131.5q-262 0 -401.5 128.5t-139.5 377.5z" />
<glyph unicode="V" horiz-adv-x="1210" d="M4 1241h281l315 -997h21l311 997h274l-415 -1241h-371z" />
<glyph unicode="W" horiz-adv-x="2013" d="M14 1241h279l272 -993h17l264 993h332l260 -993h18l268 993h275l-367 -1241h-377l-235 954h-21l-237 -954h-377z" />
<glyph unicode="X" horiz-adv-x="1226" d="M-6 0l455 637l-422 604h323l260 -399h17l272 399h299l-420 -588l455 -653h-320l-299 440h-18l-303 -440h-299z" />
<glyph unicode="Y" horiz-adv-x="1202" d="M4 1241h289l299 -555h18l305 555h283l-477 -821v-420h-258v420z" />
<glyph unicode="Z" horiz-adv-x="1095" d="M45 0v209l672 809q-33 -2 -135 -2h-508v225h970v-211l-534 -649q-76 -89 -141 -154h678v-227h-1002z" />
<glyph unicode="[" horiz-adv-x="606" d="M106 -205v1532h447v-182h-238v-1168h238v-182h-447z" />
<glyph unicode="\" horiz-adv-x="780" d="M0 1327h182l625 -1532h-184z" />
<glyph unicode="]" horiz-adv-x="593" d="M76 -23h237v1168h-237v182h446v-1532h-446v182z" />
<glyph unicode="^" horiz-adv-x="841" d="M63 799l263 442h184l266 -436l-172 -41l-180 264h-18l-170 -264z" />
<glyph unicode="_" horiz-adv-x="651" d="M29 -20h592v-183h-592v183z" />
<glyph unicode="`" horiz-adv-x="819" d="M137 1268l152 162l317 -322l-114 -107z" />
<glyph unicode="a" horiz-adv-x="1003" d="M57 233q0 283 414 283h168v55q0 68 -42.5 105t-117.5 37q-154 0 -172 -127l-227 12q20 149 129 230t287 81q395 0 395 -321v-332q0 -68 43 -68q13 0 27 7l24 -175q-55 -40 -135 -40q-166 0 -188 155q-85 -155 -291 -155q-143 0 -228.5 63.5t-85.5 189.5zM317 260 q0 -98 125 -98q83 0 141 57.5t58 157.5h-141q-183 0 -183 -117z" />
<glyph unicode="b" horiz-adv-x="1093" d="M119 0v1307h254v-357q0 -58 -11 -174q95 133 277 133q193 0 300.5 -117t107.5 -337q0 -224 -117.5 -349.5t-315.5 -125.5q-190 0 -272 147l-16 -127h-207zM362 432q0 -118 55.5 -185t149.5 -67q98 0 154.5 69t56.5 195q0 123 -55 192t-148 69q-100 0 -156.5 -77.5 t-56.5 -195.5z" />
<glyph unicode="c" horiz-adv-x="980" d="M47 442q0 214 129 340q127 127 336 127t314.5 -98t107.5 -274l-244 -5q-15 177 -176 177q-97 0 -150 -70.5t-53 -194.5t53 -194t144 -70q144 0 178 150l244 -13q-46 -337 -436 -337q-214 0 -330.5 124t-116.5 338z" />
<glyph unicode="d" horiz-adv-x="1112" d="M49 434q0 221 116 348t310 127q177 0 262 -102v500h254v-1307h-221q-5 42 -22 133q-94 -153 -291 -153q-194 0 -301 116.5t-107 337.5zM317 444q0 -123 55.5 -192.5t147.5 -69.5q101 0 157 77.5t56 197.5q0 117 -55 183.5t-150 66.5q-98 0 -154.5 -69.5t-56.5 -193.5z " />
<glyph unicode="e" horiz-adv-x="1007" d="M47 438q0 213 129 342q126 129 346 129q210 0 322 -115t112 -331q0 -52 -2 -66l-645 -2q15 -217 207 -217q144 0 184 119l244 -23q-70 -294 -444 -294q-214 0 -333.5 120.5t-119.5 337.5zM317 545h381q-12 174 -180 174q-167 0 -201 -174z" />
<glyph unicode="f" horiz-adv-x="626" d="M23 678v213h94q33 0 33 31v49q0 173 91 261.5t248 88.5q102 0 173 -41l-56 -197q-34 21 -84 21q-119 0 -119 -156v-57h187v-213h-187v-678h-253v678h-127z" />
<glyph unicode="g" horiz-adv-x="1024" d="M25 -193q0 155 204 201q-120 50 -120 156q0 130 159 174q-92 26 -145 96t-53 160q0 146 117.5 230.5t314.5 84.5q44 0 180.5 -9t181.5 -9h158v-168q-24 -1 -47 -1q-70 0 -139 7q86 -56 86 -154q0 -135 -113.5 -209.5t-306.5 -74.5h-58q-110 0 -110 -62q0 -35 31.5 -45 t115.5 -10h135q406 0 406 -272q0 -152 -147 -237t-410 -85q-209 0 -324.5 57t-115.5 170zM276 -143q0 -51 58 -80t158 -29q125 0 195.5 31t70.5 90q0 94 -172 94h-129q-181 0 -181 -106zM330 602q0 -64 45.5 -102.5t124.5 -38.5q78 0 123 38.5t45 104.5q0 64 -45.5 102.5 t-124.5 38.5t-123.5 -38.5t-44.5 -104.5z" />
<glyph unicode="h" horiz-adv-x="1058" d="M119 0v1307h256v-367q0 -84 -13 -180q85 149 271 149q323 0 323 -356v-553h-254v481q0 109 -37 157t-116 48q-124 0 -176 -143v-543h-254z" />
<glyph unicode="i" horiz-adv-x="493" d="M84 1167q0 66 44.5 107t117.5 41q75 0 119.5 -41t44.5 -107q0 -68 -44.5 -108.5t-119.5 -40.5q-73 0 -117.5 40.5t-44.5 108.5zM119 0v891h254v-891h-254z" />
<glyph unicode="j" horiz-adv-x="497" d="M-59 -375l45 203q30 -12 55 -12q43 0 62.5 25t19.5 89v961h254v-959q0 -335 -293 -335q-70 0 -143 28zM92 1167q0 66 44.5 107t117.5 41q75 0 119.5 -41t44.5 -107q0 -68 -44.5 -108.5t-119.5 -40.5q-73 0 -117.5 40.5t-44.5 108.5z" />
<glyph unicode="k" horiz-adv-x="1003" d="M119 0v1307h254v-789h6l344 373h278l-339 -383l165 -221q63 -78 115 -78q13 0 33 4l18 -215q-47 -18 -108 -18q-83 0 -140 33t-118 124l-146 199l-108 -127v-209h-254z" />
<glyph unicode="l" horiz-adv-x="493" d="M119 0v1307h254v-1307h-254z" />
<glyph unicode="m" horiz-adv-x="1624" d="M119 0v891h233v-96q0 -46 -2 -60q85 174 283 174q206 0 270 -161q100 161 295 161q324 0 324 -358v-551h-254v494q0 192 -152 192q-115 0 -168 -139v-547h-254v494q0 192 -151 192q-118 0 -170 -143v-543h-254z" />
<glyph unicode="n" horiz-adv-x="1058" d="M119 0v891h233v-96q0 -50 -2 -64q82 178 283 178q323 0 323 -358v-551h-254v479q0 110 -38 158.5t-115 48.5q-117 0 -176 -147v-539h-254z" />
<glyph unicode="o" horiz-adv-x="1048" d="M47 436q0 218 131 346q130 127 365 127q218 0 338 -123t120 -340q0 -218 -129 -342t-362 -124q-222 0 -342 120q-121 121 -121 336zM315 442q0 -122 55 -192t152 -70q96 0 153.5 71.5t57.5 190.5q0 123 -53.5 194t-147.5 71q-99 0 -158 -71.5t-59 -193.5z" />
<glyph unicode="p" horiz-adv-x="1107" d="M117 -395v1286h235v-82q0 -8 -4 -74q94 174 303 174q194 0 301 -116.5t107 -337.5t-117 -348t-315 -127q-172 0 -256 118v-493h-254zM375 430q0 -118 55 -184t150 -66q98 0 154.5 69t56.5 195q0 123 -55 192t-148 69q-101 0 -157 -77.5t-56 -197.5z" />
<glyph unicode="q" horiz-adv-x="1101" d="M49 432q0 221 119 349t317 128q196 0 289 -118l31 100h180v-1286h-254v499q-100 -124 -274 -124q-194 0 -301 116t-107 336zM317 442q0 -123 55 -191.5t148 -68.5q100 0 156.5 77.5t56.5 195.5q0 117 -55 183.5t-150 66.5q-98 0 -154.5 -68.5t-56.5 -194.5z" />
<glyph unicode="r" horiz-adv-x="686" d="M117 0v891h233v-94q0 -71 -8 -115q49 121 109.5 173t148.5 54q35 0 80 -10l-31 -266q-32 14 -78 14q-136 0 -200 -137v-510h-254z" />
<glyph unicode="s" horiz-adv-x="929" d="M49 279l252 6q13 -66 54.5 -93.5t117.5 -27.5q63 0 100 24t37 68q0 30 -22 52t-53 32q-33 11 -93 25q-46 8 -57 12q-10 3 -55 12q-42 8 -60 17q-2 1 -28.5 11.5t-46.5 20t-27 17.5q-4 3 -17 13.5t-22 18.5t-19 20t-14 23q-26 67 -26 117q0 118 108 190t285 72 q191 0 295 -75.5t106 -212.5l-243 -15q0 55 -39 87t-113 32q-62 0 -99.5 -22t-37.5 -58q0 -61 74 -82q14 -6 106 -26q184 -43 246 -78q111 -69 114 -207q0 -130 -106 -201t-281 -71q-216 0 -325.5 71.5t-110.5 227.5z" />
<glyph unicode="t" horiz-adv-x="712" d="M23 678v213h96q28 0 31 27l26 272h232v-299h249v-213h-249v-332q0 -137 102 -137q59 0 100 35l66 -189q-81 -75 -234 -75q-144 0 -217 75.5t-73 243.5v379h-129z" />
<glyph unicode="u" horiz-adv-x="1044" d="M100 348v543h254v-475q0 -112 37 -163.5t115 -51.5q110 0 166 139v551h254v-891h-232v92l6 80q-82 -192 -280 -192q-320 0 -320 368z" />
<glyph unicode="v" horiz-adv-x="966" d="M14 891h283l180 -649h21l186 649h270l-290 -891h-359z" />
<glyph unicode="w" horiz-adv-x="1566" d="M16 891h279l151 -643h21l176 643h291l172 -643h18l152 643h272l-245 -891h-345l-163 623h-19l-166 -623h-346z" />
<glyph unicode="x" horiz-adv-x="985" d="M4 0l328 442l-314 449h301l173 -275h14l168 275h295l-310 -428l320 -463h-311l-170 276h-17l-180 -276h-297z" />
<glyph unicode="y" horiz-adv-x="985" d="M12 891h279l198 -641h21l186 641h277l-291 -840v-174q0 -147 -78 -218t-207 -71q-138 0 -209 56l45 198q56 -41 121 -41q86 0 95 76q5 29 5 97q0 29 -1 65h-146z" />
<glyph unicode="z" horiz-adv-x="901" d="M61 0v205l457 483q-74 -6 -156 -6h-288v209h760v-207l-342 -362q-42 -42 -127 -115h479v-207h-783z" />
<glyph unicode="{" horiz-adv-x="733" d="M16 457v211h54q70 0 112.5 42t42.5 115v232q0 143 85 206.5t259 63.5h99v-182h-70q-164 0 -164 -160v-199q0 -185 -186 -219v-6q186 -27 186 -221v-197q0 -91 36 -128.5t124 -37.5h74v-182h-88q-178 0 -266.5 67t-88.5 216v221q0 72 -43 115t-112 43h-54z" />
<glyph unicode="|" horiz-adv-x="516" d="M168 -205v1532h178v-1532h-178z" />
<glyph unicode="}" horiz-adv-x="733" d="M63 -23h72q162 0 162 158v203q0 184 186 221v6q-186 24 -186 219v193q0 93 -35.5 130.5t-122.5 37.5h-76v182h91q177 0 265.5 -68t88.5 -217v-217q0 -72 42.5 -114.5t111.5 -42.5h53v-211h-53q-68 0 -111 -42.5t-43 -115.5v-233q0 -143 -85.5 -207t-260.5 -64h-99v182z " />
<glyph unicode="~" d="M92 373q9 260 223 260q86 0 168 -58q83 -59 142 -59q88 0 100 107l149 -29q-9 -252 -227 -252q-87 0 -166 55q-82 54 -137 54q-89 0 -104 -107z" />
<glyph unicode="&#xa1;" horiz-adv-x="591" d="M127 844q0 67 46 107t124 40q76 0 122 -40t46 -107q0 -66 -46.5 -106t-121.5 -40t-122.5 40t-47.5 106zM168 205q0 132 41 399h170q41 -270 41 -397v-516h-252v514z" />
<glyph unicode="&#xa2;" horiz-adv-x="1040" d="M57 498q0 201 104 327.5t285 149.5v211h158v-211q179 -18 271.5 -110.5t97.5 -239.5l-223 -19q-15 149 -158 176v-557q139 21 166 152l215 -23q-46 -290 -369 -325v-197h-158v197q-189 20 -289 144t-100 325zM301 504q0 -107 42 -177t116 -94v547q-158 -47 -158 -276z " />
<glyph unicode="&#xa3;" horiz-adv-x="1079" d="M61 0v199h23q95 0 142.5 58t47.5 155q0 29 -2 37h-194v153h143q-2 2 -12.5 23.5t-11.5 27.5q0 1 -11 23.5t-12 28.5q-22 81 -22 122q0 136 121 226t333 90q169 0 285 -72q115 -74 115 -203q0 -60 -15 -118l-227 4q4 50 4 63q0 67 -46 102t-126 35q-88 0 -138 -39.5 t-50 -111.5q0 -64 67 -201h309v-153h-258v-17q0 -167 -166 -225h656v-207h-955z" />
<glyph unicode="&#xa4;" horiz-adv-x="976" d="M57 223l103 107q-54 91 -54 194.5t54 188.5l-103 102l136 129l104 -104q83 47 195 47q109 0 192 -47l104 104l136 -129l-103 -104q51 -80 51 -187q0 -105 -53 -194l105 -107l-136 -131l-108 109q-83 -47 -188 -47q-108 0 -191 47l-108 -109zM297 522q0 -84 56.5 -141 t138.5 -57t136 56.5t54 141.5q0 82 -54.5 137.5t-135.5 55.5q-84 0 -139.5 -55.5t-55.5 -137.5z" />
<glyph unicode="&#xa5;" horiz-adv-x="1214" d="M16 1137h289l291 -459h20l297 459h285l-377 -539h228v-149h-322v-103h322v-149h-322v-197h-258v197h-330v149h330v103h-330v149h236z" />
<glyph unicode="&#xa6;" horiz-adv-x="516" d="M168 -205v606h178v-606h-178zM168 721v606h178v-606h-178z" />
<glyph unicode="&#xa7;" horiz-adv-x="1091" d="M78 483q0 235 330 262q-169 25 -237.5 85.5t-68.5 160.5q0 121 115 197t320 76q97 0 175.5 -19t137.5 -57t91.5 -100t33.5 -144l-248 -4q-7 76 -56 107.5t-141 31.5q-75 0 -119 -28t-44 -78q0 -52 51.5 -86t197.5 -68q218 -51 307 -115t89 -184q0 -245 -336 -266 q186 -27 250 -88q63 -63 63 -158q0 -120 -116 -196t-314 -76q-190 0 -315 76q-124 75 -127 241l245 6q15 -139 203 -139q74 0 117 27t43 76q0 53 -55 90t-199 65q-212 44 -302.5 112t-90.5 193zM322 510q0 -37 24.5 -65.5t65.5 -44.5t87 -23.5t95 -7.5q77 0 125.5 34 t48.5 84q0 66 -78.5 105t-189.5 39q-82 0 -130 -31t-48 -90z" />
<glyph unicode="&#xa8;" horiz-adv-x="819" d="M86 1165q0 60 37.5 95.5t99.5 35.5q60 0 97.5 -37t37.5 -94t-37.5 -94t-97.5 -37q-62 0 -99.5 35.5t-37.5 95.5zM459 1165q0 60 37.5 95.5t99.5 35.5q60 0 97.5 -37t37.5 -94t-37.5 -94t-97.5 -37q-62 0 -99.5 35.5t-37.5 95.5z" />
<glyph unicode="&#xa9;" horiz-adv-x="1415" d="M51 625q0 270 189 456q189 183 469 183t469 -183q186 -183 186 -456q0 -283 -186 -463q-188 -185 -469 -185t-469 185q-189 183 -189 463zM205 625q0 -221 145 -369q144 -147 359 -147q214 0 358 147q143 146 143 369q0 219 -143 362t-358 143q-216 0 -359 -143 q-145 -145 -145 -362zM346 621q0 174 98.5 273t262.5 99q157 0 241.5 -74.5t89.5 -209.5l-186 -19q-12 148 -143 148q-73 0 -116.5 -58.5t-43.5 -156.5q0 -97 44.5 -153t115.5 -56q121 0 147 106l180 -26q-53 -244 -338 -244q-167 0 -259.5 100.5t-92.5 270.5z" />
<glyph unicode="&#xaa;" horiz-adv-x="765" d="M68 805q0 199 282 199h113v30q0 88 -109 88q-102 0 -108 -75l-162 8q12 98 86.5 152.5t196.5 54.5q130 0 201 -56t71 -164v-221q0 -39 25 -39q14 0 20 2l12 -131q-37 -12 -75 -12q-117 0 -117 113v12q-52 -125 -228 -125q-93 0 -150.5 43t-57.5 121zM76 424v123h614v-123 h-614zM254 836q0 -58 74 -58q57 0 97 32t40 89h-92q-119 0 -119 -63z" />
<glyph unicode="&#xab;" horiz-adv-x="911" d="M72 406v167l338 279l53 -164l-189 -182v-25l189 -188l-60 -164zM451 406v167l337 279l54 -164l-189 -182v-25l189 -188l-60 -164z" />
<glyph unicode="&#xac;" d="M80 422v180h776v-401h-197v221h-579z" />
<glyph unicode="&#xad;" horiz-adv-x="598" d="M70 391v209h456v-209h-456z" />
<glyph unicode="&#xae;" horiz-adv-x="1415" d="M51 625q0 270 189 456q189 183 469 183t469 -183q186 -183 186 -456q0 -283 -186 -463q-188 -185 -469 -185t-469 185q-189 183 -189 463zM205 625q0 -221 145 -369q144 -147 359 -147q214 0 358 147q143 146 143 369q0 219 -143 362t-358 143q-216 0 -359 -143 q-145 -145 -145 -362zM424 270v711h324q124 0 194 -50t70 -143q0 -177 -215 -186v-4q85 -1 122.5 -31.5t43.5 -97.5q5 -49 10.5 -61.5t25.5 -12.5h9l2 -125q-24 -8 -90 -8q-61 0 -97 31t-45 115q-8 76 -25 101.5t-63 25.5h-90v-265h-176zM600 676h96q119 0 119 86 q0 76 -106 76h-109v-162z" />
<glyph unicode="&#xaf;" horiz-adv-x="819" d="M131 1044v170h555v-170h-555z" />
<glyph unicode="&#xb0;" horiz-adv-x="714" d="M55 981q0 127 85 204t225 77q131 0 212.5 -75t81.5 -196q0 -129 -87 -206.5t-228 -77.5q-131 0 -210 75t-79 199zM224 983q-1 -60 32 -94q35 -35 88 -35q67 0 107.5 36t40.5 97q0 57 -36 92t-96 35t-98 -35q-37 -36 -38 -96z" />
<glyph unicode="&#xb1;" d="M80 -57v180h809v-180h-809zM80 479v180h303v265h197v-265h309v-180h-309v-266h-197v266h-303z" />
<glyph unicode="&#xb2;" horiz-adv-x="718" d="M49 563v168l187 113q78 47 111.5 71t62.5 56q30 35 30 63q0 78 -96 78q-49 0 -78.5 -31t-29.5 -82h-179q0 265 305 265q131 0 210 -54.5t79 -150.5q0 -87 -65 -146q-67 -60 -221 -145l-80 -47h381v-158h-617z" />
<glyph unicode="&#xb3;" horiz-adv-x="731" d="M43 760h184q9 -66 111 -66q53 0 87 22t34 62q0 70 -133 70q-2 0 -68 -4l-2 125q188 21 188 88q0 63 -98 63q-106 0 -106 -84h-183q0 228 305 228q133 0 212 -47t79 -125q0 -139 -200 -166v-4q100 0 158.5 -41.5t58.5 -120.5q0 -103 -88 -160t-242 -57q-140 0 -218.5 54 t-78.5 163z" />
<glyph unicode="&#xb4;" horiz-adv-x="819" d="M238 1104l319 323l152 -155l-363 -271z" />
<glyph unicode="&#xb5;" horiz-adv-x="1064" d="M119 -395v1286h254v-475q0 -213 143 -213q127 0 174 133v555h254v-891h-219v86q0 11 4 51t4 53q-35 -101 -103 -154.5t-157 -53.5q-67 0 -123 26q10 -140 10 -403h-241z" />
<glyph unicode="&#xb6;" horiz-adv-x="1255" d="M47 827q0 197 136.5 305.5t377.5 108.5h627v-168h-461v-1401h-184v731q-239 0 -367.5 104.5t-128.5 319.5zM856 -328v1289h182v-1289h-182z" />
<glyph unicode="&#xb7;" horiz-adv-x="520" d="M92 492q0 72 46 116.5t120 44.5q75 0 121.5 -44.5t46.5 -116.5q0 -73 -46.5 -118.5t-121.5 -45.5q-74 0 -120 45.5t-46 118.5z" />
<glyph unicode="&#xb8;" horiz-adv-x="819" d="M219 -324l62 91q40 -37 90 -37q30 0 46.5 14.5t16.5 38.5q0 34 -25 45.5t-83 11.5h-66l70 180h131l-39 -96q211 6 211 -145q0 -75 -62.5 -120.5t-175.5 -45.5q-122 0 -176 63z" />
<glyph unicode="&#xb9;" horiz-adv-x="555" d="M25 1110l233 131h170v-674h-201v471l-143 -61z" />
<glyph unicode="&#xba;" horiz-adv-x="768" d="M68 950q0 142 87.5 227t235.5 85q145 0 226 -82t81 -224q0 -147 -85 -231t-238 -84q-146 0 -226.5 81.5t-80.5 227.5zM78 424v123h610v-123h-610zM258 952q0 -77 33.5 -123.5t87.5 -46.5q60 0 95.5 46.5t35.5 125.5q0 83 -33 127q-25 35 -64.5 42.5t-75 -9.5t-59.5 -60.5 t-20 -101.5z" />
<glyph unicode="&#xbb;" horiz-adv-x="913" d="M68 293l188 182v23l-188 188l59 166l332 -279v-165l-338 -279zM446 293l189 182v23l-189 188l60 166l332 -279v-165l-338 -279z" />
<glyph unicode="&#xbc;" horiz-adv-x="1472" d="M18 1110l234 131h170v-674h-201v471l-143 -61zM170 0l926 1239h190l-926 -1239h-190zM801 139v148l321 385h234v-385h84v-148h-84v-139h-187v139h-368zM987 287h182v217h-8z" />
<glyph unicode="&#xbd;" horiz-adv-x="1556" d="M18 1110l234 131h170v-674h-201v471l-143 -61zM170 0l926 1239h190l-926 -1239h-190zM909 0v168l187 113q78 47 111.5 71t62.5 56q30 35 30 63q0 78 -96 78q-49 0 -78.5 -31t-29.5 -82h-178q0 264 305 264q131 0 209.5 -54.5t78.5 -149.5q0 -87 -65 -146 q-67 -60 -221 -145l-80 -47h381v-158h-617z" />
<glyph unicode="&#xbe;" horiz-adv-x="1587" d="M31 760h184q9 -66 111 -66q53 0 86.5 22t33.5 62q0 70 -133 70q-1 0 -67 -4l-2 125q188 21 188 88q0 63 -98 63q-107 0 -107 -84h-182q0 228 305 228q133 0 212 -47t79 -125q0 -139 -201 -166v-4q100 0 158.5 -41.5t58.5 -120.5q0 -103 -87.5 -160t-241.5 -57 q-140 0 -218.5 54t-78.5 163zM285 0l925 1239h191l-926 -1239h-190zM915 139v148l322 385h231v-385h86v-148h-86v-139h-184v139h-369zM1102 287h182v217h-8z" />
<glyph unicode="&#xbf;" horiz-adv-x="1024" d="M39 -47q0 58 26 111t62 88q38 33 98 61q18 8 32 14.5t24.5 11t23.5 9.5t20 7.5t23 7t23 6.5t29 8.5t34 9.5q7 2 22 7t20.5 6.5t17 5t15.5 5t13 5t12.5 5.5t10 5t11 6t9.5 6.5t10 7.5q25 22 25 45q0 58 -88 58q-59 0 -143 -41l-54 141q81 63 232 63q299 0 299 -213 q0 -121 -101 -182q-77 -49 -229 -94q-114 -34 -160.5 -65t-46.5 -87q0 -54 50 -82t141 -28q225 0 225 141q0 27 -6 45l250 10q8 -24 8 -77q0 -154 -127 -234t-348 -80q-215 0 -339 78t-124 209zM397 844q0 67 46 107t122 40q78 0 124 -40t46 -107q0 -66 -47.5 -106 t-122.5 -40t-121.5 40t-46.5 106z" />
<glyph unicode="&#xc0;" horiz-adv-x="1273" d="M6 0l455 1241h356l449 -1241h-289l-100 299h-494l-100 -299h-277zM362 1573l152 162l317 -322l-114 -106zM459 522h342l-160 475h-20z" />
<glyph unicode="&#xc1;" horiz-adv-x="1273" d="M6 0l455 1241h356l449 -1241h-289l-100 299h-494l-100 -299h-277zM459 522h342l-160 475h-20zM463 1409l319 324l152 -156l-363 -270z" />
<glyph unicode="&#xc2;" horiz-adv-x="1273" d="M6 0l455 1241h356l449 -1241h-289l-100 299h-494l-100 -299h-277zM309 1352l226 327h210l218 -319l-162 -43l-156 194h-20l-150 -196zM459 522h342l-160 475h-20z" />
<glyph unicode="&#xc3;" horiz-adv-x="1273" d="M6 0l455 1241h356l449 -1241h-289l-100 299h-494l-100 -299h-277zM291 1346q0 262 194 262q79 0 152 -49q74 -50 106 -50q64 0 64 90h170q0 -253 -213 -253q-72 0 -143 45t-103 45q-63 0 -63 -90h-164zM459 522h342l-160 475h-20z" />
<glyph unicode="&#xc4;" horiz-adv-x="1273" d="M6 0l455 1241h356l449 -1241h-289l-100 299h-494l-100 -299h-277zM311 1470q0 60 38 96t100 36q60 0 97.5 -37.5t37.5 -94.5t-37.5 -94t-97.5 -37q-62 0 -100 35.5t-38 95.5zM459 522h342l-160 475h-20zM684 1470q0 60 37.5 96t99.5 36q60 0 97.5 -37.5t37.5 -94.5 t-37.5 -94t-97.5 -37q-62 0 -99.5 35.5t-37.5 95.5z" />
<glyph unicode="&#xc5;" horiz-adv-x="1273" d="M6 0l455 1241h356l449 -1241h-289l-100 299h-494l-100 -299h-277zM389 1534q0 100 69.5 160.5t184.5 60.5q106 0 173 -59.5t67 -153.5q0 -103 -67 -164t-179 -61q-110 0 -179 59.5t-69 157.5zM459 522h342l-160 475h-20zM539 1536q0 -43 26.5 -68.5t69.5 -25.5 q44 0 72 26.5t28 69.5q0 41 -26.5 66.5t-69.5 25.5q-44 0 -72 -26.5t-28 -67.5z" />
<glyph unicode="&#xc6;" horiz-adv-x="1828" d="M2 0l528 1241h1215v-223h-653v-285h542v-221h-542v-291h657v-221h-918v340h-419l-142 -340h-268zM504 561h327v440h-145z" />
<glyph unicode="&#xc7;" horiz-adv-x="1302" d="M53 610q0 306 170 482q169 172 453 172q250 0 407 -127t160 -377l-260 -8q-27 295 -313 295q-164 0 -256 -113.5t-92 -312.5q0 -201 92.5 -311.5t255.5 -110.5q127 0 207.5 67t103.5 191l262 -13q-20 -213 -160.5 -333t-371.5 -131l-23 -56q211 6 211 -145 q0 -75 -62 -120.5t-175 -45.5q-123 0 -177 63l62 91q40 -37 90 -37q30 0 46.5 14.5t16.5 38.5q0 34 -25 45.5t-83 11.5h-66l56 142q-252 25 -390.5 189t-138.5 439z" />
<glyph unicode="&#xc8;" horiz-adv-x="1112" d="M121 0v1241h913v-223h-653v-285h543v-221h-543v-291h657v-221h-917zM319 1573l152 162l317 -322l-114 -106z" />
<glyph unicode="&#xc9;" horiz-adv-x="1112" d="M121 0v1241h913v-223h-653v-285h543v-221h-543v-291h657v-221h-917zM420 1409l319 324l152 -156l-363 -270z" />
<glyph unicode="&#xca;" horiz-adv-x="1112" d="M121 0v1241h913v-223h-653v-285h543v-221h-543v-291h657v-221h-917zM266 1352l226 327h210l218 -319l-162 -43l-156 194h-20l-150 -196z" />
<glyph unicode="&#xcb;" horiz-adv-x="1112" d="M121 0v1241h913v-223h-653v-285h543v-221h-543v-291h657v-221h-917zM268 1470q0 60 38 96t100 36q60 0 97.5 -37.5t37.5 -94.5t-37.5 -94t-97.5 -37q-62 0 -100 35.5t-38 95.5zM641 1470q0 60 37.5 96t99.5 36q60 0 97.5 -37.5t37.5 -94.5t-37.5 -94t-97.5 -37 q-62 0 -99.5 35.5t-37.5 95.5z" />
<glyph unicode="&#xcc;" horiz-adv-x="503" d="M-18 1573l151 162l318 -322l-115 -106zM121 0v1241h260v-1241h-260z" />
<glyph unicode="&#xcd;" horiz-adv-x="503" d="M82 1409l319 324l152 -156l-363 -270zM121 0v1241h260v-1241h-260z" />
<glyph unicode="&#xce;" horiz-adv-x="503" d="M-72 1352l226 327h211l217 -319l-162 -43l-156 194h-20l-150 -196zM121 0v1241h260v-1241h-260z" />
<glyph unicode="&#xcf;" horiz-adv-x="503" d="M-70 1470q0 60 38 96t100 36q60 0 97.5 -37.5t37.5 -94.5t-37.5 -94t-97.5 -37q-62 0 -100 35.5t-38 95.5zM121 0v1241h260v-1241h-260zM303 1470q0 60 37.5 96t99.5 36q60 0 97.5 -37.5t37.5 -94.5t-37.5 -94t-97.5 -37q-62 0 -99.5 35.5t-37.5 95.5z" />
<glyph unicode="&#xd0;" horiz-adv-x="1323" d="M18 524v193h103v524h504q294 0 457 -150.5t163 -439.5q0 -294 -182 -473q-184 -178 -512 -178h-430v524h-103zM381 229h182q191 0 302.5 111.5t111.5 300.5q0 177 -99.5 274t-279.5 97h-217v-295h254v-193h-254v-295z" />
<glyph unicode="&#xd1;" horiz-adv-x="1320" d="M115 0v1241h336l389 -631q60 -93 116 -219h13v850h237v-1241h-291l-548 918h-15v-918h-237zM324 1346q0 262 194 262q79 0 152 -49q74 -50 106 -50q64 0 64 90h170q0 -253 -213 -253q-73 0 -144 45t-102 45q-64 0 -64 -90h-163z" />
<glyph unicode="&#xd2;" horiz-adv-x="1396" d="M57 625q0 291 176 467q175 172 474 172q292 0 462 -170q170 -173 170 -465q0 -301 -174 -475q-177 -177 -479 -177q-291 0 -461 173q-168 171 -168 475zM326 623q0 -202 100 -314q98 -116 266 -116q179 0 279 115t100 317q0 197 -97 310.5t-267 113.5q-178 0 -279 -113 q-102 -114 -102 -313zM440 1573l152 162l317 -322l-114 -106z" />
<glyph unicode="&#xd3;" horiz-adv-x="1396" d="M57 625q0 291 176 467q175 172 474 172q292 0 462 -170q170 -173 170 -465q0 -301 -174 -475q-177 -177 -479 -177q-291 0 -461 173q-168 171 -168 475zM326 623q0 -202 100 -314q98 -116 266 -116q179 0 279 115t100 317q0 197 -97 310.5t-267 113.5q-178 0 -279 -113 q-102 -114 -102 -313zM541 1409l319 324l152 -156l-363 -270z" />
<glyph unicode="&#xd4;" horiz-adv-x="1396" d="M57 625q0 291 176 467q175 172 474 172q292 0 462 -170q170 -173 170 -465q0 -301 -174 -475q-177 -177 -479 -177q-291 0 -461 173q-168 171 -168 475zM326 623q0 -202 100 -314q98 -116 266 -116q179 0 279 115t100 317q0 197 -97 310.5t-267 113.5q-178 0 -279 -113 q-102 -114 -102 -313zM387 1352l225 327h211l217 -319l-161 -43l-156 194h-21l-149 -196z" />
<glyph unicode="&#xd5;" horiz-adv-x="1396" d="M57 625q0 291 176 467q175 172 474 172q292 0 462 -170q170 -173 170 -465q0 -301 -174 -475q-177 -177 -479 -177q-291 0 -461 173q-168 171 -168 475zM326 623q0 -202 100 -314q98 -116 266 -116q179 0 279 115t100 317q0 197 -97 310.5t-267 113.5q-178 0 -279 -113 q-102 -114 -102 -313zM369 1346q0 262 194 262q79 0 152 -49q74 -50 106 -50q64 0 64 90h170q0 -253 -213 -253q-73 0 -144 45t-102 45q-64 0 -64 -90h-163z" />
<glyph unicode="&#xd6;" horiz-adv-x="1396" d="M57 625q0 291 176 467q175 172 474 172q292 0 462 -170q170 -173 170 -465q0 -301 -174 -475q-177 -177 -479 -177q-291 0 -461 173q-168 171 -168 475zM326 623q0 -202 100 -314q98 -116 266 -116q179 0 279 115t100 317q0 197 -97 310.5t-267 113.5q-178 0 -279 -113 q-102 -114 -102 -313zM389 1470q0 60 37.5 96t99.5 36q60 0 98 -37.5t38 -94.5t-38 -94t-98 -37q-62 0 -99.5 35.5t-37.5 95.5zM762 1470q0 60 37.5 96t99.5 36q60 0 97.5 -37.5t37.5 -94.5t-37.5 -94t-97.5 -37q-62 0 -99.5 35.5t-37.5 95.5z" />
<glyph unicode="&#xd7;" d="M98 256l254 254l-254 254l131 133l256 -254l254 254l131 -133l-254 -254l254 -254l-131 -133l-254 256l-256 -256z" />
<glyph unicode="&#xd8;" horiz-adv-x="1396" d="M57 625q0 291 176 467q175 172 474 172q204 0 360 -90l111 124l127 -110l-109 -123q143 -168 143 -436q0 -301 -174 -475q-177 -177 -479 -177q-213 0 -367 97l-118 -135l-129 110l121 137q-136 168 -136 439zM326 623q0 -131 47 -234l534 604q-83 56 -200 56 q-177 0 -279 -114t-102 -312zM481 256q86 -63 211 -63q179 0 279 115t100 317q0 142 -51 241z" />
<glyph unicode="&#xd9;" horiz-adv-x="1280" d="M104 483v758h261v-721q0 -317 282 -317q128 0 198 80t70 229v729h259v-758q0 -243 -138.5 -374.5t-390.5 -131.5q-262 0 -401.5 128.5t-139.5 377.5zM367 1573l151 162l318 -322l-115 -106z" />
<glyph unicode="&#xda;" horiz-adv-x="1280" d="M104 483v758h261v-721q0 -317 282 -317q128 0 198 80t70 229v729h259v-758q0 -243 -138.5 -374.5t-390.5 -131.5q-262 0 -401.5 128.5t-139.5 377.5zM467 1409l319 324l152 -156l-363 -270z" />
<glyph unicode="&#xdb;" horiz-adv-x="1280" d="M104 483v758h261v-721q0 -317 282 -317q128 0 198 80t70 229v729h259v-758q0 -243 -138.5 -374.5t-390.5 -131.5q-262 0 -401.5 128.5t-139.5 377.5zM313 1352l226 327h211l217 -319l-162 -43l-156 194h-20l-150 -196z" />
<glyph unicode="&#xdc;" horiz-adv-x="1280" d="M104 483v758h261v-721q0 -317 282 -317q128 0 198 80t70 229v729h259v-758q0 -243 -138.5 -374.5t-390.5 -131.5q-262 0 -401.5 128.5t-139.5 377.5zM315 1470q0 60 38 96t100 36q60 0 97.5 -37.5t37.5 -94.5t-37.5 -94t-97.5 -37q-62 0 -100 35.5t-38 95.5zM688 1470 q0 60 37.5 96t99.5 36q60 0 98 -37.5t38 -94.5t-38 -94t-98 -37q-62 0 -99.5 35.5t-37.5 95.5z" />
<glyph unicode="&#xdd;" horiz-adv-x="1202" d="M4 1241h289l299 -555h18l305 555h283l-477 -821v-420h-258v420zM440 1409l320 324l151 -156l-362 -270z" />
<glyph unicode="&#xde;" horiz-adv-x="1126" d="M121 0v1241h260v-215h270q208 0 324.5 -90.5t116.5 -269.5q0 -201 -124.5 -309.5t-344.5 -108.5h-242v-248h-260zM381 467h213q109 0 168 48t59 134q0 75 -50 117.5t-142 42.5h-248v-342z" />
<glyph unicode="&#xdf;" horiz-adv-x="1282" d="M23 678v213h94q33 0 33 31v12q0 189 157 289q154 98 402 98q214 0 341.5 -77.5t127.5 -215.5q0 -129 -95 -197q-47 -34 -86 -53t-112 -47q-64 -22 -84.5 -36.5t-26.5 -49.5q0 -35 30.5 -53t100.5 -31q145 -33 232 -84q112 -65 112 -209q0 -134 -104.5 -211t-272.5 -77 t-262 50t-123 158l211 70q40 -88 162 -88q127 0 127 92q0 45 -36 69t-117 44q-119 26 -175 49q-50 20 -75 45q-68 64 -68 162q0 106 76 164q62 50 162 86q85 34 119 62.5t34 74.5q0 49 -53.5 77.5t-146.5 28.5q-155 0 -229.5 -58.5t-74.5 -184.5v-881h-253v678h-127z" />
<glyph unicode="&#xe0;" horiz-adv-x="1003" d="M57 233q0 283 414 283h168v55q0 68 -42.5 105t-117.5 37q-154 0 -172 -127l-227 12q20 149 129 230t287 81q395 0 395 -321v-332q0 -68 43 -68q13 0 27 7l24 -175q-55 -40 -135 -40q-166 0 -188 155q-85 -155 -291 -155q-143 0 -228.5 63.5t-85.5 189.5zM231 1245 l152 162l317 -322l-114 -106zM317 260q0 -98 125 -98q83 0 141 57.5t58 157.5h-141q-183 0 -183 -117z" />
<glyph unicode="&#xe1;" horiz-adv-x="1003" d="M57 233q0 283 414 283h168v55q0 68 -42.5 105t-117.5 37q-154 0 -172 -127l-227 12q20 149 129 230t287 81q395 0 395 -321v-332q0 -68 43 -68q13 0 27 7l24 -175q-55 -40 -135 -40q-166 0 -188 155q-85 -155 -291 -155q-143 0 -228.5 63.5t-85.5 189.5zM317 260 q0 -98 125 -98q83 0 141 57.5t58 157.5h-141q-183 0 -183 -117zM332 1081l319 324l152 -156l-363 -270z" />
<glyph unicode="&#xe2;" horiz-adv-x="1003" d="M57 233q0 283 414 283h168v55q0 68 -42.5 105t-117.5 37q-154 0 -172 -127l-227 12q20 149 129 230t287 81q395 0 395 -321v-332q0 -68 43 -68q13 0 27 7l24 -175q-55 -40 -135 -40q-166 0 -188 155q-85 -155 -291 -155q-143 0 -228.5 63.5t-85.5 189.5zM178 1024 l225 328h211l217 -320l-161 -43l-156 195h-20l-150 -197zM317 260q0 -98 125 -98q83 0 141 57.5t58 157.5h-141q-183 0 -183 -117z" />
<glyph unicode="&#xe3;" horiz-adv-x="1003" d="M57 233q0 283 414 283h168v55q0 68 -42.5 105t-117.5 37q-154 0 -172 -127l-227 12q20 149 129 230t287 81q395 0 395 -321v-332q0 -68 43 -68q13 0 27 7l24 -175q-55 -40 -135 -40q-166 0 -188 155q-85 -155 -291 -155q-143 0 -228.5 63.5t-85.5 189.5zM160 1018 q0 262 194 262q79 0 152 -49t106 -49q64 0 64 90h170q0 -254 -213 -254q-73 0 -144 45t-102 45q-63 0 -63 -90h-164zM317 260q0 -98 125 -98q83 0 141 57.5t58 157.5h-141q-183 0 -183 -117z" />
<glyph unicode="&#xe4;" horiz-adv-x="1003" d="M57 233q0 283 414 283h168v55q0 68 -42.5 105t-117.5 37q-154 0 -172 -127l-227 12q20 149 129 230t287 81q395 0 395 -321v-332q0 -68 43 -68q13 0 27 7l24 -175q-55 -40 -135 -40q-166 0 -188 155q-85 -155 -291 -155q-143 0 -228.5 63.5t-85.5 189.5zM180 1143 q0 60 37.5 95.5t99.5 35.5q60 0 98 -37t38 -94t-38 -94t-98 -37q-62 0 -99.5 35.5t-37.5 95.5zM317 260q0 -98 125 -98q83 0 141 57.5t58 157.5h-141q-183 0 -183 -117zM553 1143q0 60 37.5 95.5t99.5 35.5q60 0 97.5 -37t37.5 -94t-37.5 -94t-97.5 -37q-62 0 -99.5 35.5 t-37.5 95.5z" />
<glyph unicode="&#xe5;" horiz-adv-x="1003" d="M57 233q0 283 414 283h168v55q0 68 -42.5 105t-117.5 37q-154 0 -172 -127l-227 12q20 149 129 230t287 81q395 0 395 -321v-332q0 -68 43 -68q13 0 27 7l24 -175q-55 -40 -135 -40q-166 0 -188 155q-85 -155 -291 -155q-143 0 -228.5 63.5t-85.5 189.5zM258 1206 q0 100 69.5 160.5t184.5 60.5q106 0 173 -59.5t67 -153.5q0 -103 -67 -164t-179 -61q-110 0 -179 59.5t-69 157.5zM317 260q0 -98 125 -98q83 0 141 57.5t58 157.5h-141q-183 0 -183 -117zM408 1208q0 -43 26.5 -68.5t69.5 -25.5q44 0 72 26.5t28 69.5q0 41 -26.5 67 t-69.5 26q-44 0 -72 -27t-28 -68z" />
<glyph unicode="&#xe6;" horiz-adv-x="1566" d="M55 236q0 278 414 278h168v57q0 66 -43 104t-115 38q-157 0 -172 -129l-229 14q20 149 129 230t287 81q231 0 307 -125q104 125 295 125q199 0 310.5 -117.5t111.5 -332.5q0 -6 -1 -15t-2 -23t-2 -24h-628q18 -217 196 -217q135 0 179 117l243 -23q-70 -294 -426 -294 q-234 0 -348 178q-111 -178 -352 -178q-147 0 -234.5 65.5t-87.5 190.5zM317 260q0 -47 33.5 -72.5t91.5 -25.5q83 0 140 56.5t57 156.5h-141q-181 0 -181 -115zM891 545h366q-15 172 -176 172q-156 0 -190 -172z" />
<glyph unicode="&#xe7;" horiz-adv-x="980" d="M47 442q0 214 129 340q127 127 336 127t314.5 -98t107.5 -274l-244 -5q-15 177 -176 177q-97 0 -150 -70.5t-53 -194.5t53 -194t144 -70q144 0 178 150l244 -13q-43 -316 -398 -337l-22 -56q211 6 211 -145q0 -75 -62.5 -120.5t-175.5 -45.5q-122 0 -176 63l62 91 q40 -37 90 -37q30 0 46.5 14.5t16.5 38.5q0 34 -25 45.5t-83 11.5h-66l55 146q-172 25 -264 145t-92 311z" />
<glyph unicode="&#xe8;" horiz-adv-x="1007" d="M47 438q0 213 129 342q126 129 346 129q210 0 322 -115t112 -331q0 -52 -2 -66l-645 -2q15 -217 207 -217q144 0 184 119l244 -23q-70 -294 -444 -294q-214 0 -333.5 120.5t-119.5 337.5zM248 1245l151 162l318 -322l-115 -106zM317 545h381q-12 174 -180 174 q-167 0 -201 -174z" />
<glyph unicode="&#xe9;" horiz-adv-x="1007" d="M47 438q0 213 129 342q126 129 346 129q210 0 322 -115t112 -331q0 -52 -2 -66l-645 -2q15 -217 207 -217q144 0 184 119l244 -23q-70 -294 -444 -294q-214 0 -333.5 120.5t-119.5 337.5zM317 545h381q-12 174 -180 174q-167 0 -201 -174zM348 1081l320 324l151 -156 l-362 -270z" />
<glyph unicode="&#xea;" horiz-adv-x="1007" d="M47 438q0 213 129 342q126 129 346 129q210 0 322 -115t112 -331q0 -52 -2 -66l-645 -2q15 -217 207 -217q144 0 184 119l244 -23q-70 -294 -444 -294q-214 0 -333.5 120.5t-119.5 337.5zM195 1024l225 328h211l217 -320l-162 -43l-156 195h-20l-150 -197zM317 545h381 q-12 174 -180 174q-167 0 -201 -174z" />
<glyph unicode="&#xeb;" horiz-adv-x="1007" d="M47 438q0 213 129 342q126 129 346 129q210 0 322 -115t112 -331q0 -52 -2 -66l-645 -2q15 -217 207 -217q144 0 184 119l244 -23q-70 -294 -444 -294q-214 0 -333.5 120.5t-119.5 337.5zM197 1143q0 60 37.5 95.5t99.5 35.5q60 0 97.5 -37t37.5 -94t-37.5 -94t-97.5 -37 q-62 0 -99.5 35.5t-37.5 95.5zM317 545h381q-12 174 -180 174q-167 0 -201 -174zM569 1143q0 60 38 95.5t100 35.5q60 0 97.5 -37t37.5 -94t-37.5 -94t-97.5 -37q-62 0 -100 35.5t-38 95.5z" />
<glyph unicode="&#xec;" horiz-adv-x="493" d="M-25 1245l152 162l317 -322l-114 -106zM119 0v891h254v-891h-254z" />
<glyph unicode="&#xed;" horiz-adv-x="493" d="M76 1081l319 324l152 -156l-363 -270zM119 0v891h254v-891h-254z" />
<glyph unicode="&#xee;" horiz-adv-x="493" d="M-78 1024l225 328h211l217 -320l-161 -43l-156 195h-20l-150 -197zM119 0v891h254v-891h-254z" />
<glyph unicode="&#xef;" horiz-adv-x="493" d="M-76 1143q0 60 37.5 95.5t99.5 35.5q60 0 98 -37t38 -94t-38 -94t-98 -37q-62 0 -99.5 35.5t-37.5 95.5zM119 0v891h254v-891h-254zM297 1143q0 60 37.5 95.5t99.5 35.5q60 0 97.5 -37t37.5 -94t-37.5 -94t-97.5 -37q-62 0 -99.5 35.5t-37.5 95.5z" />
<glyph unicode="&#xf0;" horiz-adv-x="1052" d="M47 420q0 193 123 313q119 119 311 119q176 0 254 -96q-47 182 -178 276l-166 -127l-106 123l106 80q-115 30 -223 41l41 164q203 -6 360 -72l138 102l108 -116l-94 -72q140 -103 214.5 -261t74.5 -341q0 -272 -129 -422.5t-363 -150.5q-211 0 -340 120 q-131 119 -131 320zM317 420q0 -111 54.5 -177.5t150.5 -66.5q99 0 156 67t57 183q0 106 -55.5 167.5t-151.5 61.5q-102 0 -156.5 -61t-54.5 -174z" />
<glyph unicode="&#xf1;" horiz-adv-x="1058" d="M119 0v891h233v-96q0 -50 -2 -64q82 178 283 178q323 0 323 -358v-551h-254v479q0 110 -38 158.5t-115 48.5q-117 0 -176 -147v-539h-254zM203 1018q0 262 194 262q79 0 152 -49t106 -49q64 0 64 90h170q0 -254 -213 -254q-73 0 -144 45t-102 45q-63 0 -63 -90h-164z" />
<glyph unicode="&#xf2;" horiz-adv-x="1048" d="M47 436q0 218 131 346q130 127 365 127q218 0 338 -123t120 -340q0 -218 -129 -342t-362 -124q-222 0 -342 120q-121 121 -121 336zM268 1245l152 162l317 -322l-114 -106zM315 442q0 -122 55 -192t152 -70q96 0 153.5 71.5t57.5 190.5q0 123 -53.5 194t-147.5 71 q-99 0 -158 -71.5t-59 -193.5z" />
<glyph unicode="&#xf3;" horiz-adv-x="1048" d="M47 436q0 218 131 346q130 127 365 127q218 0 338 -123t120 -340q0 -218 -129 -342t-362 -124q-222 0 -342 120q-121 121 -121 336zM315 442q0 -122 55 -192t152 -70q96 0 153.5 71.5t57.5 190.5q0 123 -53.5 194t-147.5 71q-99 0 -158 -71.5t-59 -193.5zM369 1081 l319 324l152 -156l-363 -270z" />
<glyph unicode="&#xf4;" horiz-adv-x="1048" d="M47 436q0 218 131 346q130 127 365 127q218 0 338 -123t120 -340q0 -218 -129 -342t-362 -124q-222 0 -342 120q-121 121 -121 336zM215 1024l225 328h211l217 -320l-161 -43l-156 195h-21l-149 -197zM315 442q0 -122 55 -192t152 -70q96 0 153.5 71.5t57.5 190.5 q0 123 -53.5 194t-147.5 71q-99 0 -158 -71.5t-59 -193.5z" />
<glyph unicode="&#xf5;" horiz-adv-x="1048" d="M47 436q0 218 131 346q130 127 365 127q218 0 338 -123t120 -340q0 -218 -129 -342t-362 -124q-222 0 -342 120q-121 121 -121 336zM197 1018q0 262 194 262q79 0 152 -49t106 -49q64 0 64 90h170q0 -254 -213 -254q-73 0 -144 45t-102 45q-64 0 -64 -90h-163zM315 442 q0 -122 55 -192t152 -70q96 0 153.5 71.5t57.5 190.5q0 123 -53.5 194t-147.5 71q-99 0 -158 -71.5t-59 -193.5z" />
<glyph unicode="&#xf6;" horiz-adv-x="1048" d="M47 436q0 218 131 346q130 127 365 127q218 0 338 -123t120 -340q0 -218 -129 -342t-362 -124q-222 0 -342 120q-121 121 -121 336zM217 1143q0 60 37.5 95.5t99.5 35.5q60 0 97.5 -37t37.5 -94t-37.5 -94t-97.5 -37q-62 0 -99.5 35.5t-37.5 95.5zM315 442 q0 -122 55 -192t152 -70q96 0 153.5 71.5t57.5 190.5q0 123 -53.5 194t-147.5 71q-99 0 -158 -71.5t-59 -193.5zM590 1143q0 60 37.5 95.5t99.5 35.5q60 0 97.5 -37t37.5 -94t-37.5 -94t-97.5 -37q-62 0 -99.5 35.5t-37.5 95.5z" />
<glyph unicode="&#xf7;" d="M80 420v180h809v-180h-809zM338 186q0 62 40 102t103 40q61 0 101.5 -40t40.5 -102q0 -63 -40 -102t-102 -39q-63 0 -103 39t-40 102zM340 836q0 61 40 100t103 39q62 0 102 -39t40 -100q0 -63 -40 -103.5t-102 -40.5q-63 0 -103 40.5t-40 103.5z" />
<glyph unicode="&#xf8;" horiz-adv-x="1048" d="M47 436q0 218 131.5 345.5t364.5 127.5q140 0 239 -51l76 90l117 -88l-78 -92q104 -116 104 -322q0 -218 -129 -342t-362 -124q-141 0 -242 49l-78 -92l-116 90l78 90q-105 117 -105 319zM303 442q0 -66 19 -125l319 375q-47 33 -113 33q-103 0 -164 -76.5t-61 -206.5z M410 195q48 -31 108 -31q103 0 163 74.5t60 203.5q0 63 -16 125z" />
<glyph unicode="&#xf9;" horiz-adv-x="1044" d="M100 348v543h254v-475q0 -112 37 -163.5t115 -51.5q110 0 166 139v551h254v-891h-232v92l6 80q-82 -192 -280 -192q-320 0 -320 368zM248 1245l151 162l318 -322l-115 -106z" />
<glyph unicode="&#xfa;" horiz-adv-x="1044" d="M100 348v543h254v-475q0 -112 37 -163.5t115 -51.5q110 0 166 139v551h254v-891h-232v92l6 80q-82 -192 -280 -192q-320 0 -320 368zM348 1081l320 324l151 -156l-362 -270z" />
<glyph unicode="&#xfb;" horiz-adv-x="1044" d="M100 348v543h254v-475q0 -112 37 -163.5t115 -51.5q110 0 166 139v551h254v-891h-232v92l6 80q-82 -192 -280 -192q-320 0 -320 368zM195 1024l225 328h211l217 -320l-162 -43l-156 195h-20l-150 -197z" />
<glyph unicode="&#xfc;" horiz-adv-x="1044" d="M100 348v543h254v-475q0 -112 37 -163.5t115 -51.5q110 0 166 139v551h254v-891h-232v92l6 80q-82 -192 -280 -192q-320 0 -320 368zM197 1143q0 60 37.5 95.5t99.5 35.5q60 0 97.5 -37t37.5 -94t-37.5 -94t-97.5 -37q-62 0 -99.5 35.5t-37.5 95.5zM569 1143 q0 60 38 95.5t100 35.5q60 0 97.5 -37t37.5 -94t-37.5 -94t-97.5 -37q-62 0 -100 35.5t-38 95.5z" />
<glyph unicode="&#xfd;" horiz-adv-x="985" d="M12 891h279l198 -641h21l186 641h277l-291 -840v-174q0 -147 -78 -218t-207 -71q-138 0 -209 56l45 198q56 -41 121 -41q86 0 95 76q7 42 4 162h-146zM328 1081l319 324l152 -156l-363 -270z" />
<glyph unicode="&#xfe;" horiz-adv-x="1093" d="M119 -395v1702h254v-357q0 -58 -11 -170q108 129 283 129q188 0 295 -118t107 -332q0 -226 -121 -353q-120 -126 -303 -126q-162 0 -250 102v-477h-254zM360 434q0 -118 56 -184t153 -66q95 0 152 70t57 195q0 121 -55.5 188.5t-147.5 67.5q-102 0 -158.5 -76.5 t-56.5 -194.5z" />
<glyph unicode="&#xff;" horiz-adv-x="985" d="M12 891h279l198 -641h21l186 641h277l-291 -840v-174q0 -147 -78 -218t-207 -71q-138 0 -209 56l45 198q56 -41 121 -41q86 0 95 76q7 42 4 162h-146zM176 1143q0 60 37.5 95.5t99.5 35.5q60 0 98 -37t38 -94t-38 -94t-98 -37q-62 0 -99.5 35.5t-37.5 95.5zM549 1143 q0 60 37.5 95.5t99.5 35.5q60 0 97.5 -37t37.5 -94t-37.5 -94t-97.5 -37q-62 0 -99.5 35.5t-37.5 95.5z" />
<glyph unicode="&#x152;" horiz-adv-x="1900" d="M55 625q0 290 176 454q174 162 480 162h1110v-223h-654v-285h543v-221h-543v-291h658v-221h-1137q-302 0 -467.5 162.5t-165.5 462.5zM326 623q0 -194 97 -299t269 -105h215v801h-198q-182 0 -282.5 -101.5t-100.5 -295.5z" />
<glyph unicode="&#x153;" horiz-adv-x="1665" d="M47 436q0 219 129.5 346t362.5 127q215 0 325 -137q122 137 318 137q209 0 320.5 -116t111.5 -336q0 -7 -1 -31.5t-1 -32.5h-633q18 -213 197 -213q140 0 180 117l243 -23q-70 -294 -442 -294q-204 0 -313 124q-118 -124 -338 -124q-222 0 -340.5 119t-118.5 337z M315 442q0 -122 55 -192t152 -70q96 0 153.5 71.5t57.5 190.5q0 123 -53.5 194t-147.5 71q-99 0 -158 -71.5t-59 -193.5zM985 543h369q-15 174 -178 174q-157 0 -191 -174z" />
<glyph unicode="&#x178;" horiz-adv-x="1202" d="M4 1241h289l299 -555h18l305 555h283l-477 -821v-420h-258v420zM289 1470q0 60 37.5 96t99.5 36q60 0 97.5 -37.5t37.5 -94.5t-37.5 -94t-97.5 -37q-62 0 -99.5 35.5t-37.5 95.5zM662 1470q0 60 37.5 96t99.5 36q60 0 97.5 -37.5t37.5 -94.5t-37.5 -94t-97.5 -37 q-62 0 -99.5 35.5t-37.5 95.5z" />
<glyph unicode="&#x2c6;" horiz-adv-x="819" d="M84 1047l225 327h211l217 -319l-162 -43l-155 194h-21l-149 -196z" />
<glyph unicode="&#x2dc;" horiz-adv-x="819" d="M66 1040q0 263 194 263q78 0 152 -50q73 -49 106 -49q64 0 64 90h170q0 -254 -213 -254q-73 0 -144 45t-102 45q-64 0 -64 -90h-163z" />
<glyph unicode="&#x2000;" horiz-adv-x="877" />
<glyph unicode="&#x2001;" horiz-adv-x="1755" />
<glyph unicode="&#x2002;" horiz-adv-x="877" />
<glyph unicode="&#x2003;" horiz-adv-x="1755" />
<glyph unicode="&#x2004;" horiz-adv-x="585" />
<glyph unicode="&#x2005;" horiz-adv-x="438" />
<glyph unicode="&#x2006;" horiz-adv-x="292" />
<glyph unicode="&#x2007;" horiz-adv-x="292" />
<glyph unicode="&#x2008;" horiz-adv-x="219" />
<glyph unicode="&#x2009;" horiz-adv-x="351" />
<glyph unicode="&#x200a;" horiz-adv-x="97" />
<glyph unicode="&#x2010;" horiz-adv-x="598" d="M70 391v209h456v-209h-456z" />
<glyph unicode="&#x2011;" horiz-adv-x="598" d="M70 391v209h456v-209h-456z" />
<glyph unicode="&#x2012;" horiz-adv-x="598" d="M70 391v209h456v-209h-456z" />
<glyph unicode="&#x2013;" horiz-adv-x="1157" d="M98 442v179h961v-179h-961z" />
<glyph unicode="&#x2014;" horiz-adv-x="1894" d="M98 442v179h1698v-179h-1698z" />
<glyph unicode="&#x2018;" horiz-adv-x="477" d="M57 983q0 124 70 200t217 113l51 -104q-170 -68 -170 -166v-14q21 18 78 18q50 0 82.5 -32t32.5 -85q0 -65 -47.5 -101t-122.5 -36q-84 0 -137.5 59.5t-53.5 147.5z" />
<glyph unicode="&#x2019;" horiz-adv-x="477" d="M57 1137q0 65 47.5 101t122.5 36q84 0 137.5 -60t53.5 -149q0 -236 -287 -313l-53 106q92 36 132 76t40 92v12q-20 -20 -78 -20q-50 0 -82.5 33t-32.5 86z" />
<glyph unicode="&#x201a;" horiz-adv-x="471" d="M55 102q0 65 47.5 101.5t122.5 36.5q84 0 136.5 -60t52.5 -149q0 -238 -285 -312l-53 107q172 64 172 168v10q-21 -18 -78 -18q-50 0 -82.5 31.5t-32.5 84.5z" />
<glyph unicode="&#x201c;" horiz-adv-x="882" d="M57 983q0 124 70 200t217 113l51 -104q-170 -68 -170 -166v-14q21 18 78 18q50 0 82.5 -32t32.5 -85q0 -65 -47.5 -101t-122.5 -36q-84 0 -137.5 59.5t-53.5 147.5zM463 983q0 124 70 200t217 113l51 -104q-170 -68 -170 -166v-14q21 18 78 18q50 0 82 -32t32 -85 q0 -65 -47.5 -101t-122.5 -36q-83 0 -136.5 59.5t-53.5 147.5z" />
<glyph unicode="&#x201d;" horiz-adv-x="882" d="M57 1137q0 65 47.5 101t122.5 36q84 0 137.5 -60t53.5 -149q0 -236 -287 -313l-53 106q92 36 132 76t40 92v12q-20 -20 -78 -20q-50 0 -82.5 33t-32.5 86zM463 1137q0 65 47.5 101t122.5 36q84 0 137 -60t53 -149q0 -236 -286 -313l-54 106q92 36 132 76t40 92v12 q-20 -20 -77 -20q-50 0 -82.5 33t-32.5 86z" />
<glyph unicode="&#x201e;" horiz-adv-x="882" d="M55 102q0 65 47.5 101.5t122.5 36.5q84 0 136.5 -60t52.5 -149q0 -238 -285 -312l-53 107q172 64 172 168v10q-21 -18 -78 -18q-50 0 -82.5 31.5t-32.5 84.5zM461 102q0 65 47.5 101.5t122.5 36.5q83 0 135.5 -60t52.5 -149q0 -239 -284 -312l-54 107q172 64 172 168v10 q-21 -18 -78 -18q-50 0 -82 31.5t-32 84.5z" />
<glyph unicode="&#x2022;" horiz-adv-x="669" d="M137 516q0 88 54.5 141.5t142.5 53.5q90 0 144 -53.5t54 -141.5t-54 -142.5t-144 -54.5q-88 0 -142.5 53.5t-54.5 143.5z" />
<glyph unicode="&#x2026;" horiz-adv-x="1617" d="M102 141q0 72 46 117t120 45q75 0 121.5 -45t46.5 -117q0 -73 -46.5 -118.5t-121.5 -45.5q-74 0 -120 45.5t-46 118.5zM641 141q0 72 46 117t120 45q75 0 121.5 -45t46.5 -117q0 -73 -46.5 -118.5t-121.5 -45.5q-74 0 -120 45.5t-46 118.5zM1182 141q0 72 46 117t120 45 q75 0 121.5 -45t46.5 -117q0 -73 -46.5 -118.5t-121.5 -45.5q-74 0 -120 45.5t-46 118.5z" />
<glyph unicode="&#x202f;" horiz-adv-x="351" />
<glyph unicode="&#x2039;" horiz-adv-x="532" d="M72 406v167l338 279l53 -164l-189 -182v-25l189 -188l-60 -164z" />
<glyph unicode="&#x203a;" horiz-adv-x="532" d="M68 293l188 182v23l-188 188l59 166l332 -279v-165l-338 -279z" />
<glyph unicode="&#x205f;" horiz-adv-x="438" />
<glyph unicode="&#x20ac;" horiz-adv-x="1228" d="M31 365v147h131q-2 10 -2 43q0 45 2 57h-131v148h157q54 183 198 283t351 100q323 0 455 -221l-188 -119q-92 135 -263 135q-216 0 -292 -178h352v-148h-383q-2 -10 -2 -45q0 -45 2 -55h383v-147h-352q71 -179 284 -179q170 0 264 113l189 -123q-144 -199 -459 -199 q-210 0 -352.5 101.5t-192.5 286.5h-151z" />
<glyph unicode="&#x2122;" horiz-adv-x="1503" d="M23 1100v141h532v-141h-184v-414h-166v414h-182zM621 686v555h233l156 -395h8l158 395h231v-555h-158v375h-8l-154 -375h-147l-156 375h-8v-375h-155z" />
<glyph unicode="&#x25fc;" horiz-adv-x="890" d="M0 0v891h891v-891h-891z" />
</font>
</defs>
</svg>
