<?xml version="1.0" standalone="no"?>
<!DOCTYPE svg PUBLIC "-//W3C//DTD SVG 1.1//EN" "http://www.w3.org/Graphics/SVG/1.1/DTD/svg11.dtd" >
<svg xmlns="http://www.w3.org/2000/svg" xmlns:xlink="http://www.w3.org/1999/xlink" version="1.1">
<metadata></metadata>
<defs>
<font id="equitan_sansregular" horiz-adv-x="970" >
<font-face units-per-em="2048" ascent="1561" descent="-487" />
<missing-glyph horiz-adv-x="368" />
<glyph unicode="&#xfb01;" horiz-adv-x="1021" d="M39 764v127h115q30 0 30 27v83q0 314 275 314q97 0 147 -33l-55 -115q-38 23 -90 23q-131 0 -131 -191v-108h538v-891h-145v764h-393v-764h-146v764h-145zM692 1194q0 48 28 76t77 28q50 0 77 -28t27 -76q0 -50 -27 -78.5t-77 -28.5q-49 0 -77 28.5t-28 78.5z" />
<glyph unicode="&#xfb02;" horiz-adv-x="1040" d="M39 764v127h115q30 0 30 27v83q0 314 277 314q93 0 145 -37l-57 -113q-45 25 -82 25q-73 0 -105 -46t-32 -145v-108h227v-127h-227v-764h-146v764h-145zM741 0v1307h146v-1307h-146z" />
<glyph horiz-adv-x="0" />
<glyph horiz-adv-x="682" />
<glyph horiz-adv-x="0" />
<glyph horiz-adv-x="0" />
<glyph unicode="&#xd;" horiz-adv-x="681" />
<glyph unicode=" "  horiz-adv-x="368" />
<glyph unicode="&#x09;" horiz-adv-x="368" />
<glyph unicode="&#xa0;" horiz-adv-x="368" />
<glyph unicode="!" horiz-adv-x="604" d="M180 106q0 55 33.5 88t89.5 33q55 0 88 -32.5t33 -88.5q0 -57 -33 -90q-26 -25 -64.5 -30.5t-72 6t-56 42t-18.5 72.5zM231 737v541h146v-535q0 -79 -31 -397h-84q-31 324 -31 391z" />
<glyph unicode="&#x22;" horiz-adv-x="643" d="M102 1241h172l-32 -434h-107zM369 1241h172l-33 -434h-107z" />
<glyph unicode="#" horiz-adv-x="1306" d="M123 207v119h219v401h-219v119h219v207h127v-207h369v207h127v-207h219v-119h-219v-401h219v-119h-219v-207h-127v207h-369v-207h-127v207h-219zM469 326h369v401h-369v-401z" />
<glyph unicode="$" horiz-adv-x="1013" d="M76 313l141 15q53 -160 238 -178v385q-90 19 -139.5 35t-102.5 46q-115 65 -115 220q0 132 94 212t263 87v176h102v-176q151 -12 245 -86t111 -207l-141 -27q-26 98 -76.5 144t-138.5 57v-371q83 -14 138.5 -31.5t117.5 -50.5q125 -69 125 -229q0 -132 -103 -210.5 t-278 -90.5v-201h-102v201q-327 15 -379 280zM244 846q0 -77 51.5 -118t159.5 -62v354q-211 -12 -211 -174zM557 150q231 15 231 190q0 75 -55 113t-176 63v-366z" />
<glyph unicode="%" horiz-adv-x="1443" d="M72 707q0 118 80 192q81 72 210 72q128 0 206.5 -70.5t78.5 -185.5q0 -121 -81.5 -195t-215.5 -74q-125 0 -203 72q-75 69 -75 189zM204 709.5q0 -69.5 40 -111.5q40 -43 104 -43q74 0 121 43.5t47 112.5q0 67 -44.5 109t-113.5 42q-68 0 -112 -41q-42 -42 -42 -111.5z M287 0l729 948h145l-729 -948h-145zM797 242q0 118 80 192q81 72 210 72q128 0 206.5 -70.5t78.5 -185.5q0 -121 -81.5 -194.5t-215.5 -73.5q-126 0 -203 71q-75 69 -75 189zM931 244.5q0 -69.5 40 -111.5q40 -43 104 -43q74 0 121 43.5t47 112.5q0 67 -44.5 109t-113.5 42 q-68 0 -112 -41q-42 -42 -42 -111.5z" />
<glyph unicode="&#x26;" horiz-adv-x="1318" d="M59 307q0 234 303 359q-122 158 -122 274q0 152 106 237t283 85q134 0 237 -74q101 -76 101 -199q0 -134 -100.5 -223t-286.5 -150l71 -75l215 -228l17 -16q146 149 196 383h135q-47 -269 -245 -467q114 -102 196 -102q57 0 97 18l30 -119q-73 -28 -139 -28 q-141 0 -291 141q-198 -143 -405 -143q-189 0 -293.5 83t-104.5 244zM215 322q0 -99 65 -159.5t181 -60.5q165 0 315 105q-1 1 -4 5t-4 5l-236 256l-92 102q-225 -89 -225 -253zM389 950q0 -105 107 -239q105 35 168 67q49 22 79 49q32 27 54 66.5t22 81.5q0 72 -55 120 t-141 48q-107 0 -170.5 -51.5t-63.5 -141.5z" />
<glyph unicode="'" horiz-adv-x="376" d="M102 1241h172l-32 -434h-107z" />
<glyph unicode="(" horiz-adv-x="645" d="M90 559q0 379 137 574q138 194 336 194h31v-108h-25q-161 0 -257.5 -173.5t-96.5 -478.5q0 -309 97 -486t257 -177h25v-109h-33q-201 0 -336 193q-135 194 -135 571z" />
<glyph unicode=")" horiz-adv-x="645" d="M51 -96h25q161 0 257.5 172t96.5 479q0 311 -96.5 487.5t-257.5 176.5h-25v108h33q202 0 336 -192q135 -193 135 -572t-135 -573q-139 -195 -338 -195h-31v109z" />
<glyph unicode="*" horiz-adv-x="800" d="M72 1049l30 98l240 -70l6 250h103l8 -250l239 72l31 -98l-233 -84l141 -205l-84 -62l-152 197l-151 -199l-84 62l139 207z" />
<glyph unicode="+" d="M68 463v108h360v367h115v-367h360v-108h-360v-369h-115v369h-360z" />
<glyph unicode="," horiz-adv-x="442" d="M76 90q0 50 36.5 80.5t92.5 30.5q71 0 114 -52.5t43 -130.5q0 -109 -64 -181t-185 -97l-29 76q164 47 170 180q0 17 -4 37q-33 -39 -80 -39q-39 0 -66.5 27.5t-27.5 68.5z" />
<glyph unicode="-" horiz-adv-x="602" d="M84 440v148h434v-148h-434z" />
<glyph unicode="." horiz-adv-x="432" d="M94 107q0 54 35 88t88.5 34t87.5 -34t34 -88t-34 -89t-87.5 -35t-88.5 35t-35 89z" />
<glyph unicode="/" horiz-adv-x="759" d="M0 -205l625 1532h114l-624 -1532h-115z" />
<glyph unicode="0" horiz-adv-x="1044" d="M72 465q0 225 125 362q123 138 333 138q203 0 324 -136q119 -134 119 -358q0 -225 -123 -358t-340 -133q-201 0 -319.5 131.5t-118.5 353.5zM221 467q0 -167 79 -266t212 -99q143 0 227 98t84 265q0 171 -83.5 274t-219.5 103q-139 0 -219 -100.5t-80 -274.5z" />
<glyph unicode="1" horiz-adv-x="643" d="M39 807l301 141h123v-948h-146v793l-237 -103z" />
<glyph unicode="2" horiz-adv-x="985" d="M100 0v135l287 209q4 3 38 27.5t60 42.5q95 65 97 67q15 11 65 58q66 63 66 145q0 78 -61 118t-160 40q-236 0 -236 -197q0 -23 2 -29h-145q-2 10 -2 35q0 143 103.5 227.5t281.5 84.5q170 0 268 -71.5t98 -203.5q0 -77 -45 -156q-13 -23 -61 -65q-37 -32 -70 -57 q-44 -33 -94 -66q-70 -46 -98 -68l-203 -141h592v-135h-783z" />
<glyph unicode="3" horiz-adv-x="954" d="M59 31l144 6q12 -232 256 -232q112 0 183 66t71 184q0 106 -70 163.5t-203 57.5q-50 0 -108 -6l-6 117q181 21 267.5 83t86.5 179q0 91 -62 142t-159 51q-117 0 -177.5 -55.5t-60.5 -147.5v-18h-141v26q0 142 102.5 229t278.5 87q167 0 267.5 -83.5t100.5 -220.5 q0 -268 -274 -303v-6q127 9 217 -69q90 -84 90 -234q0 -167 -112 -264q-113 -98 -291 -98q-187 0 -293.5 86t-106.5 260z" />
<glyph unicode="4" horiz-adv-x="987" d="M31 61v115l544 772h197v-755h182v-132h-182v-354h-137v354h-604zM195 193h440v606h-12z" />
<glyph unicode="5" horiz-adv-x="966" d="M100 6l142 12q44 -213 250 -213q114 0 190 81t76 218q0 143 -68.5 217t-187.5 74q-162 0 -232 -135l-127 19v669h703v-135h-580v-391q91 98 254 98q179 0 285 -109.5t106 -299.5q0 -195 -118 -310q-119 -116 -306 -116q-160 0 -265 83.5t-122 237.5z" />
<glyph unicode="6" horiz-adv-x="1042" d="M106 575q0 323 121.5 505t345.5 182q175 0 268 -89t99 -255l-143 -9q-9 236 -226 236q-151 0 -234 -131t-83 -355v-51q89 183 311 183q177 0 279 -105.5t102 -288.5q0 -190 -112.5 -302.5t-301.5 -112.5q-426 0 -426 593zM272 381q0 -127 74 -202t191 -75q122 0 190 77 t68 208q0 128 -65 201.5t-183 73.5q-124 0 -199.5 -77.5t-75.5 -205.5z" />
<glyph unicode="7" horiz-adv-x="847" d="M31 809v135h784v-125l-496 -1120h-149l496 1110h-635z" />
<glyph unicode="8" horiz-adv-x="1060" d="M92 334q0 130 67 212.5t177 108.5v7q-207 68 -207 282q0 141 110.5 229.5t292.5 88.5q175 0 289 -91q109 -92 109 -231q0 -103 -55.5 -179t-147.5 -99v-7q102 -25 172 -107t70 -200q0 -171 -118 -268.5t-323 -97.5q-203 0 -319.5 93.5t-116.5 258.5zM246 346 q0 -115 78.5 -180.5t205.5 -65.5q131 0 208 66.5t77 181.5q0 106 -78 173t-207 67q-125 0 -204.5 -67t-79.5 -175zM281 940q0 -107 69 -168t180 -61q112 0 180 63.5t68 167.5q0 88 -68 146.5t-175 58.5q-109 0 -181.5 -58.5t-72.5 -148.5z" />
<glyph unicode="9" horiz-adv-x="1050" d="M100 561q0 176 115 291q114 111 301 111q207 0 317.5 -149t110.5 -449q0 -322 -120 -501t-341 -179q-182 0 -276.5 88.5t-100.5 255.5l144 8q15 -232 242 -232q144 0 223.5 125t79.5 338v78q-91 -180 -314 -180q-177 0 -279 106t-102 289zM250 569q0 -128 66 -201 t184 -73q125 0 199.5 74.5t74.5 201.5q0 118 -71.5 193.5t-186.5 75.5q-126 0 -196 -72.5t-70 -198.5z" />
<glyph unicode=":" horiz-adv-x="440" d="M98 107q0 54 35 88t88.5 34t87.5 -34t34 -88t-34 -89t-87.5 -35t-88.5 35t-35 89zM98 713.5q0 53.5 35 87.5t88.5 34t87.5 -34t34 -87.5t-34 -88.5t-87.5 -35t-88.5 35t-35 88.5z" />
<glyph unicode=";" horiz-adv-x="454" d="M82 90q0 50 36.5 80.5t92.5 30.5q71 0 114.5 -53t43.5 -130q0 -109 -64.5 -181t-185.5 -97l-29 76q164 47 170 180q0 17 -4 37q-33 -39 -80 -39q-39 0 -66.5 27.5t-27.5 68.5zM100 713.5q0 53.5 35 87.5t88.5 34t87.5 -34t34 -87.5t-34 -88.5t-87.5 -35t-88.5 35 t-35 88.5z" />
<glyph unicode="&#x3c;" d="M137 473v86l668 297v-125l-496 -207v-10l504 -195v-126z" />
<glyph unicode="=" d="M90 299v109h791v-109h-791zM90 614v109h791v-109h-791z" />
<glyph unicode="&#x3e;" d="M158 713v127l676 -281v-86l-668 -297v125l493 207v10z" />
<glyph unicode="?" horiz-adv-x="956" d="M70 1001q0 149 116 225.5t318 76.5q180 0 283.5 -75t103.5 -198q-9 -98 -47.5 -155t-120.5 -99q-17 -9 -29.5 -15t-22 -11t-21 -10t-17.5 -7.5t-20 -7.5t-20 -7t-26.5 -9t-31.5 -11q-150 -55 -179 -84q-26 -26 -26 -61q0 -82 121 -82q70 0 155 43l39 -104 q-75 -60 -207 -60q-254 0 -254 191q0 57 22.5 97.5t74.5 72.5q52 30 96 49.5t133 50.5q97 33 154 72q75 49 75 141q0 76 -63 119t-178 43q-283 0 -283 -193q0 -1 4 -55l-137 -23q-12 37 -12 86zM299 106q0 55 33.5 88t89.5 33t88.5 -32.5t32.5 -88.5q0 -57 -33 -90 q-26 -25 -64.5 -30.5t-72 6t-56 42t-18.5 72.5z" />
<glyph unicode="@" horiz-adv-x="1830" d="M109 393q0 322 219 549q216 223 610 223q369 0 573 -192q207 -195 207 -488q0 -235 -99.5 -368t-283.5 -133q-95 0 -154 44.5t-59 121.5v18q-70 -186 -313 -186q-110 0 -184 59t-74 160q0 254 367 254h180v80q0 85 -50.5 128.5t-142.5 43.5q-186 0 -207 -162l-125 16 q13 122 102.5 189t231.5 67q322 0 322 -285v-311q0 -63 30 -100t84 -37q102 0 181 88q80 89 80 307q0 259 -177 424q-177 162 -495 162q-340 0 -522 -191q-185 -194 -185 -483q0 -68 8.5 -131.5t30 -129t54 -121t83.5 -105t116 -84.5t155 -56t196 -22q54 0 172 16l4 -104 q-71 -14 -172 -14q-210 1 -364.5 63.5t-241.5 173.5q-157 204 -157 516zM692 215q0 -117 139 -117q114 0 191.5 68t77.5 186h-166q-126 0 -184 -32t-58 -105z" />
<glyph unicode="A" horiz-adv-x="1167" d="M20 0l463 1241h207l457 -1241h-162l-133 371h-541l-135 -371h-156zM358 504h447l-213 590h-19z" />
<glyph unicode="B" horiz-adv-x="1163" d="M150 0v1241h471q411 0 411 -295q0 -117 -69 -193.5t-195 -93.5v-4q139 -1 220 -80t81 -213q0 -168 -110.5 -265t-309.5 -97h-499zM297 131h326q139 0 214.5 63t75.5 171q0 99 -71 157t-193 58h-352v-449zM297 713h289q140 0 215.5 57t75.5 156q0 87 -63.5 135.5 t-180.5 48.5h-336v-397z" />
<glyph unicode="C" horiz-adv-x="1282" d="M74 610q0 306 162 480q163 172 428 172q221 0 372 -121q150 -123 150 -350l-146 -11q-34 353 -387 353q-198 0 -312 -136.5t-114 -375.5q0 -246 115.5 -378t325.5 -132q147 0 245 81.5t123 227.5l148 -10q-23 -201 -162.5 -315.5t-359.5 -114.5q-275 0 -431.5 167.5 t-156.5 462.5z" />
<glyph unicode="D" horiz-adv-x="1288" d="M152 0v1241h469q261 0 423 -149q160 -151 160 -441q0 -289 -176 -471q-174 -180 -461 -180h-415zM299 135h256q229 0 363 137q133 136 133 367q0 218 -120 342.5t-325 124.5h-307v-971z" />
<glyph unicode="E" horiz-adv-x="1054" d="M152 0v1241h829v-133h-682v-412h571v-133h-571v-430h686v-133h-833z" />
<glyph unicode="F" horiz-adv-x="1030" d="M152 0v1241h819v-133h-672v-432h582v-133h-582v-543h-147z" />
<glyph unicode="G" horiz-adv-x="1404" d="M82 604q0 308 166 483t442 175q220 0 371 -103q153 -107 168 -334l-148 -14q-17 157 -121 239.5t-272 82.5q-209 0 -330.5 -140.5t-121.5 -380.5q0 -237 119 -368t325 -131q135 0 242.5 72t152.5 190q24 59 29 106h-383v131h532v-612h-135l-6 258q-132 -278 -444 -278 q-268 0 -426 165q-160 165 -160 459z" />
<glyph unicode="H" horiz-adv-x="1314" d="M152 0v1241h147v-549h717v549h147v-1241h-147v555h-717v-555h-147z" />
<glyph unicode="I" horiz-adv-x="450" d="M152 0v1241h147v-1241h-147z" />
<glyph unicode="J" horiz-adv-x="1021" d="M80 315v82h143v-67q0 -103 67 -161t199 -58q111 0 180.5 61.5t69.5 179.5v756h-395v133h543v-870q0 -93 -26.5 -164t-67 -113t-96.5 -68.5t-108 -36t-108 -9.5q-185 0 -293 88t-108 247z" />
<glyph unicode="K" horiz-adv-x="1167" d="M152 0v1241h147v-700h10l641 700h185l-514 -561l542 -680h-196l-455 575l-213 -243v-332h-147z" />
<glyph unicode="L" horiz-adv-x="942" d="M152 0v1241h147v-1104h604v-137h-751z" />
<glyph unicode="M" horiz-adv-x="1634" d="M152 0v1241h247l418 -1077h14l412 1077h240v-1241h-142v1094h-16l-420 -1094h-170l-424 1094h-16v-1094h-143z" />
<glyph unicode="N" horiz-adv-x="1277" d="M152 0v1241h210l496 -823q99 -167 123 -221h10v1044h135v-1241h-180l-649 1090h-10v-1090h-135z" />
<glyph unicode="O" horiz-adv-x="1388" d="M84 625q0 292 170 465q169 172 457 172q270 0 434 -170q160 -174 160 -461q0 -301 -168 -475q-170 -176 -455 -176q-274 0 -436 174t-162 471zM238 625q0 -237 120.5 -375.5t325.5 -138.5q215 0 341 140t126 378q0 233 -120 368.5t-324 135.5q-217 0 -343 -136.5 t-126 -371.5z" />
<glyph unicode="P" horiz-adv-x="1081" d="M152 0v1241h475q190 0 296.5 -86t106.5 -254q0 -183 -111.5 -281t-314.5 -98h-305v-522h-147zM299 655h305q129 0 199.5 64t70.5 174q0 102 -62 159.5t-181 57.5h-332v-455z" />
<glyph unicode="Q" horiz-adv-x="1392" d="M84 625q0 294 168 465q169 172 461 172q278 0 437 -168t159 -463q0 -232 -106.5 -393.5t-297.5 -221.5l43 -55q52 -67 113 -67q48 0 78 34l86 -104q-60 -72 -168 -72q-71 0 -127.5 31t-116.5 108l-74 97q-12 -2 -55 -2q-286 0 -443 168t-157 471zM238 625 q0 -236 120 -371q119 -137 328 -137q216 0 342.5 137.5t126.5 374.5q0 233 -121 369.5t-325 136.5q-218 0 -344 -138q-127 -139 -127 -372z" />
<glyph unicode="R" horiz-adv-x="1236" d="M152 0v1241h544q194 0 301 -82.5t107 -236.5q0 -140 -74.5 -222t-210.5 -92v-6q94 -17 136.5 -65.5t54.5 -153.5l18 -160q6 -56 26 -77t56 -23h25l4 -133q-24 -6 -66 -6q-170 0 -194 221l-19 162q-10 93 -55 130.5t-143 37.5h-363v-535h-147zM299 670h360q139 0 214 62 t75 167q0 209 -256 209h-393v-438z" />
<glyph unicode="S" horiz-adv-x="1093" d="M68 360l149 7q20 -139 103 -198.5t241 -59.5q133 0 214 56t81 165q0 128 -137 188q-87 36 -187 57q-73 17 -126 33q-22 5 -111 39q-70 27 -105 62q-38 36 -64 93.5t-26 125.5q0 164 123 250q125 84 312 84q218 0 337 -97.5t119 -279.5l-145 -13q-13 146 -86.5 205.5 t-229.5 59.5q-130 0 -203 -51t-73 -142q0 -63 31 -103t96 -69q57 -25 186 -61q224 -62 285 -97q162 -88 162 -270q0 -124 -69.5 -212.5t-172.5 -121.5q-94 -30 -209 -30q-492 0 -495 380z" />
<glyph unicode="T" horiz-adv-x="1085" d="M27 1106v135h1032v-135h-443v-1106h-147v1106h-442z" />
<glyph unicode="U" horiz-adv-x="1243" d="M137 465v776h148v-758q0 -184 90.5 -277t259.5 -93q153 0 238 91.5t85 262.5v774h148v-772q0 -233 -126.5 -361t-350.5 -128q-235 0 -363.5 126t-128.5 359z" />
<glyph unicode="V" horiz-adv-x="1134" d="M6 1241h162l393 -1085h19l391 1085h157l-462 -1241h-201z" />
<glyph unicode="W" horiz-adv-x="1908" d="M25 1241h153l359 -1098h14l319 1098h195l309 -1098h17l344 1098h149l-395 -1241h-221l-291 1065h-21l-303 -1065h-221z" />
<glyph unicode="X" horiz-adv-x="1153" d="M18 0l467 633l-438 608h182l338 -487h17l352 487h170l-440 -598l469 -643h-181l-372 522h-15l-379 -522h-170z" />
<glyph unicode="Y" horiz-adv-x="1120" d="M12 1241h166l373 -631h10l381 631h166l-485 -784v-457h-148v457z" />
<glyph unicode="Z" horiz-adv-x="1077" d="M72 0v133l764 977q-70 -4 -185 -4h-551v135h906v-131l-666 -854q-56 -71 -109 -121h777v-135h-936z" />
<glyph unicode="[" horiz-adv-x="563" d="M123 -205v1532h371v-108h-252v-1315h252v-109h-371z" />
<glyph unicode="\" horiz-adv-x="759" d="M20 1327h115l625 -1532h-115z" />
<glyph unicode="]" horiz-adv-x="563" d="M70 -96h252v1315h-252v108h370v-1532h-370v109z" />
<glyph unicode="^" horiz-adv-x="841" d="M92 825l254 416h135l269 -410l-99 -40l-229 337h-14l-213 -337z" />
<glyph unicode="_" horiz-adv-x="636" d="M23 -20h591v-123h-591v123z" />
<glyph unicode="`" horiz-adv-x="819" d="M156 1329l96 107l346 -346l-63 -60z" />
<glyph unicode="a" horiz-adv-x="980" d="M82 225q0 283 387 283h219v90q0 93 -54 140.5t-153 47.5q-205 0 -229 -178l-141 10q17 140 114 215.5t258 75.5q351 0 351 -313v-399q0 -88 53 -88q22 0 39 10l24 -115q-40 -24 -96 -24q-149 0 -149 176v12q-86 -188 -314 -188q-134 0 -221.5 65t-87.5 180zM236 248 q0 -68 48 -106q46 -36 120 -36h8q123 2 200.5 75.5t77.5 215.5h-201q-253 0 -253 -149z" />
<glyph unicode="b" horiz-adv-x="1075" d="M154 0v1307h145v-404q0 -20 -4 -168q94 174 313 174q181 0 288.5 -119.5t107.5 -330.5q0 -226 -115.5 -352.5t-308.5 -126.5q-196 0 -281 147l-16 -127h-129zM289 430q0 -153 74 -239.5t204 -86.5q132 0 208.5 90t76.5 252t-74 249t-203 87q-145 0 -215 -102 q-71 -106 -71 -250z" />
<glyph unicode="c" horiz-adv-x="954" d="M72 451q0 197 118 327q119 131 306 131q182 0 285.5 -91.5t109.5 -242.5l-141 -6q-21 217 -248 217q-134 0 -207.5 -91t-73.5 -251q0 -159 74.5 -247t204.5 -88q205 0 245 184l142 -14q-62 -299 -395 -299q-198 0 -308 131q-112 130 -112 340z" />
<glyph unicode="d" horiz-adv-x="1083" d="M72 434q0 218 111.5 346.5t295.5 128.5q217 0 305 -147v545h146v-1307h-137q-2 78 -11 154q-101 -174 -315 -174q-180 0 -287.5 121t-107.5 333zM225 446q0 -159 75 -247t202 -88q144 0 215 102q71 103 71 250q0 153 -74.5 237t-205.5 84t-207 -89.5t-76 -248.5z" />
<glyph unicode="e" horiz-adv-x="985" d="M72 440q0 208 123 340q120 129 319 129q187 0 293 -106t106 -297q0 -4 -4 -82h-690q6 -154 82 -236t213 -82q207 0 248 177l135 -17q-65 -286 -397 -286q-203 0 -315.5 120.5t-112.5 339.5zM227 541h535q-5 119 -68.5 183t-181.5 64q-117 0 -191 -63.5t-94 -183.5z" />
<glyph unicode="f" horiz-adv-x="591" d="M39 764v127h119q30 0 30 27v83q0 314 281 314q111 0 178 -55l-61 -105q-53 35 -111 35q-73 0 -107 -46t-34 -145v-108h227v-127h-227v-764h-146v764h-149z" />
<glyph unicode="g" horiz-adv-x="1009" d="M61 -174q0 166 203 219q-59 17 -91 57.5t-32 92.5q0 117 142 155q-78 32 -124 101t-46 155q0 140 104.5 221.5t282.5 81.5h4q37 0 157.5 -9t182.5 -9h149v-127q-93 0 -213 18q86 -56 86 -182q0 -139 -106 -218t-279 -79h-57q-143 0 -143 -84q6 -47 42 -60.5t119 -13.5 h168q184 0 271.5 -58t87.5 -185q0 -145 -136 -229.5t-366 -84.5q-184 0 -295 62t-111 176zM209 -150q0 -67 72.5 -107t195.5 -40q160 0 251 46t91 130q0 73 -55 104t-178 31h-142q-115 0 -175 -44.5t-60 -119.5zM260 610q0 -89 62 -141.5t170 -52.5t168.5 52.5t60.5 143.5 q0 86 -61.5 138.5t-170.5 52.5q-108 0 -168.5 -53t-60.5 -140z" />
<glyph unicode="h" horiz-adv-x="1036" d="M154 0v1307h145v-426q0 -76 -6 -146q88 174 289 174q323 0 323 -360v-549h-145v506q0 272 -209 272q-181 0 -252 -200v-578h-145z" />
<glyph unicode="i" horiz-adv-x="452" d="M123 1194q0 48 27.5 76t76.5 28q50 0 77.5 -28t27.5 -76q0 -50 -27.5 -78.5t-77.5 -28.5q-49 0 -76.5 28.5t-27.5 78.5zM154 0v891h145v-891h-145z" />
<glyph unicode="j" horiz-adv-x="458" d="M-70 -350l41 131q51 -23 92 -23q97 0 97 117v1016h145v-1002q0 -268 -239 -268q-57 0 -136 29zM131 1194q0 48 28 76t77 28q50 0 77 -28t27 -76q0 -50 -27 -78.5t-77 -28.5q-49 0 -77 28.5t-28 78.5z" />
<glyph unicode="k" horiz-adv-x="944" d="M154 0v1307h145v-854h4l442 438h179l-371 -371l223 -313q38 -54 63 -72t60 -18q19 0 23 2l12 -129q-38 -10 -62 -10q-72 0 -112 32q-45 29 -119 135l-190 269l-152 -152v-264h-145z" />
<glyph unicode="l" horiz-adv-x="452" d="M154 0v1307h145v-1307h-145z" />
<glyph unicode="m" horiz-adv-x="1615" d="M154 0v891h141v-82q0 -10 -4 -80q88 180 291 180q214 0 278 -184q99 184 309 184q316 0 316 -370v-539h-146v506q0 270 -206 270q-164 0 -240 -192v-584h-145v506q0 270 -211 270q-158 0 -238 -194v-582h-145z" />
<glyph unicode="n" horiz-adv-x="1038" d="M154 0v891h139v-82q0 -14 -4 -84q85 184 293 184q157 0 240 -90.5t83 -273.5v-545h-145v502q0 276 -209 276q-179 0 -252 -205v-573h-145z" />
<glyph unicode="o" horiz-adv-x="1019" d="M72 438q0 209 121 342q120 129 331 129q197 0 310.5 -125.5t113.5 -337.5q0 -209 -119 -337q-120 -129 -331 -129q-200 0 -312 124q-114 123 -114 334zM221 440q0 -152 79 -243t210 -91t209 91t78 243q0 155 -77 248.5t-206 93.5q-135 0 -214 -92t-79 -250z" />
<glyph unicode="p" horiz-adv-x="1073" d="M150 -395v1286h143v-82q-1 -9 -4 -42t-4 -42q94 184 319 184q181 0 289 -120.5t108 -331.5q0 -221 -118 -348q-120 -129 -308 -129q-194 0 -280 139v-514h-145zM285 428q0 -153 74 -237.5t204 -84.5q135 0 210 87.5t75 250.5q0 162 -73 248t-202 86q-141 0 -214.5 -97.5 t-73.5 -252.5z" />
<glyph unicode="q" horiz-adv-x="1077" d="M72 432q0 221 118 348q117 129 306 129q210 0 299 -141l20 123h117v-1286h-146v538q-105 -163 -319 -163q-181 0 -288 120.5t-107 331.5zM223 442q0 -162 73.5 -247.5t203.5 -85.5q144 0 215 102q71 103 71 248q0 152 -74 235.5t-204 83.5q-135 0 -210 -86.5t-75 -249.5z " />
<glyph unicode="r" horiz-adv-x="632" d="M150 0v891h139v-80q0 -61 -6 -123q100 219 264 219q36 0 67 -8l-18 -149q-30 6 -57 6q-171 0 -244 -193v-563h-145z" />
<glyph unicode="s" horiz-adv-x="876" d="M76 270l143 6q21 -174 230 -174q88 0 141 36t53 102q0 59 -44 89t-165 62q-3 3 -45 12q-39 8 -49 13q-2 1 -8 2.5t-16 5t-21 6.5q-22 7 -34 12.5t-25 13t-27 13.5q-33 16 -52.5 36.5t-39.5 57.5q-21 57 -21 101q0 106 91 175.5t241 69.5q168 0 262 -74t94 -210l-143 -11 q-6 174 -211 174q-86 0 -136 -34t-50 -86q8 -53 24 -76.5t66 -42.5q66 -24 135 -41q63 -14 96 -25q23 -8 82 -30q51 -23 78 -47q68 -68 68 -166q0 -122 -94.5 -191t-247.5 -69q-176 0 -275.5 73.5t-99.5 216.5z" />
<glyph unicode="t" horiz-adv-x="688" d="M27 764v127h125q27 0 30 29l21 260h125v-289h293v-127h-293v-488q0 -159 121 -159q78 0 129 51l65 -105q-69 -81 -215 -81q-246 0 -246 276v506h-155z" />
<glyph unicode="u" horiz-adv-x="1024" d="M131 352v539h145v-496q0 -284 205 -284q171 0 244 204v576h145v-891h-139v80l12 108q-83 -206 -292 -206q-320 0 -320 370z" />
<glyph unicode="v" horiz-adv-x="886" d="M25 891h155l258 -737h19l256 737h155l-325 -891h-193z" />
<glyph unicode="w" horiz-adv-x="1486" d="M27 891h153l226 -750h18l240 750h178l223 -750h18l226 750h151l-280 -891h-207l-215 721h-17l-229 -721h-207z" />
<glyph unicode="x" horiz-adv-x="905" d="M23 0l342 446l-314 445h176l230 -332h12l236 332h165l-321 -434l334 -457h-176l-244 344h-17l-258 -344h-165z" />
<glyph unicode="y" horiz-adv-x="911" d="M18 891h156l285 -739h16l266 739h152l-320 -854v-197q0 -123 -58.5 -182t-160.5 -59q-109 0 -166 51l50 114q40 -34 98 -34q91 0 100 75q3 21 3 100q0 47 -1 115h-84z" />
<glyph unicode="z" horiz-adv-x="847" d="M57 0v121l553 647q-46 -4 -114 -4h-414v127h700v-123l-452 -522l-107 -119h568v-127h-734z" />
<glyph unicode="{" horiz-adv-x="684" d="M12 496v135h54q81 0 130.5 48.5t49.5 133.5v244q0 143 69 206.5t213 63.5h86v-106h-73q-96 0 -134 -43.5t-38 -147.5v-229q0 -200 -174 -234v-6q84 -12 129 -73t45 -156v-240q0 -104 38 -147t134 -43h73v-107h-86q-144 0 -213 63.5t-69 207.5v247q0 85 -49.5 134 t-130.5 49h-54z" />
<glyph unicode="|" horiz-adv-x="499" d="M195 -205v1532h110v-1532h-110z" />
<glyph unicode="}" horiz-adv-x="684" d="M70 -98h73q96 0 134 43t38 147v234q0 199 174 233v6q-83 12 -128.5 73.5t-45.5 156.5v235q0 104 -38 147.5t-134 43.5h-73v106h86q144 0 213 -63.5t69 -206.5v-244q0 -85 49.5 -133.5t130.5 -48.5h54v-135h-54q-81 0 -130.5 -49t-49.5 -134v-247q0 -144 -69 -207.5 t-213 -63.5h-86v107z" />
<glyph unicode="~" d="M90 399q12 97 69.5 148t149.5 51q91 0 191 -63q101 -64 168 -64q101 0 110 117l103 -25q-13 -95 -69 -146.5t-142 -51.5q-93 0 -193 63q-104 61 -176 61q-96 0 -111 -112z" />
<glyph unicode="&#xa1;" horiz-adv-x="604" d="M180 862q0 57 33 90q26 25 64.5 30.5t72 -6t56 -42t18.5 -72.5q0 -55 -33.5 -88t-89.5 -33q-55 0 -88 32.5t-33 88.5zM227 225q0 80 31 398h84q31 -324 31 -392v-540h-146v534z" />
<glyph unicode="&#xa2;" horiz-adv-x="1009" d="M78 492q0 211 100.5 339.5t272.5 147.5v207h106v-207q163 -12 257 -100t106 -228l-138 -22q-12 102 -70 162.5t-155 72.5v-733q194 18 238 203l123 -35q-65 -267 -361 -285v-182h-106v182q-182 19 -277.5 143.5t-95.5 334.5zM223 498q0 -152 62 -244q62 -95 166 -119v725 q-110 -21 -168 -115q-60 -97 -60 -247z" />
<glyph unicode="&#xa3;" horiz-adv-x="1024" d="M41 0v115h33q217 0 217 250q0 57 -12 104h-209v106h174q-3 4 -9.5 20.5t-14 35.5t-9.5 24q-1 1 -5 14.5t-7 24.5q-25 73 -25 137q0 139 106 227.5t298 88.5q152 0 262 -72q108 -71 108 -201q0 -46 -16 -112l-135 8q4 50 4 70q0 186 -228 186q-122 0 -185.5 -51.5 t-63.5 -151.5q0 -85 63 -248h338v-106h-301q16 -59 16 -102q0 -149 -135 -238h653v-129h-917z" />
<glyph unicode="&#xa4;" horiz-adv-x="980" d="M90 197l103 104q-72 101 -72 223q0 125 69 215l-100 103l76 78l102 -103q94 70 224 70q124 0 219 -68l100 101l76 -78l-99 -99q72 -97 72 -219q0 -124 -74 -227l101 -100l-76 -78l-102 102q-94 -67 -217 -67q-130 0 -222 69l-104 -104zM238 522q0 -111 73 -186.5 t181 -75.5t179.5 75.5t71.5 186.5q0 112 -71 185t-180 73t-181.5 -73t-72.5 -185z" />
<glyph unicode="&#xa5;" horiz-adv-x="1136" d="M20 1137h168l371 -549h10l381 549h166l-393 -551h252v-107h-328l-16 -22v-119h344v-107h-344v-231h-148v231h-344v107h344v119l-16 22h-328v107h256z" />
<glyph unicode="&#xa6;" horiz-adv-x="499" d="M195 -205v606h110v-606h-110zM195 721v606h110v-606h-110z" />
<glyph unicode="&#xa7;" horiz-adv-x="1044" d="M92 494q0 221 305 251q-152 25 -216 86.5t-64 159.5q0 119 105 195t292 76q124 0 214 -32t144.5 -105t55.5 -181l-142 -4q-12 114 -78.5 160.5t-191.5 46.5q-115 0 -183.5 -40t-68.5 -112q0 -69 62 -116q63 -48 268 -88q186 -38 272 -102.5t86 -176.5q0 -240 -311 -258 q162 -25 225.5 -85t63.5 -161q0 -117 -108.5 -194.5t-284.5 -77.5q-124 0 -215 32t-146.5 105.5t-56.5 183.5l141 6q11 -117 81 -165t196 -48q110 0 176.5 40.5t66.5 111.5q0 27 -5 46.5t-24.5 44t-54 43t-97 37.5t-150.5 34q-357 59 -357 287zM240 518q1 -53 33 -93.5 t83 -64t110.5 -34.5t121.5 -9q93 0 155 49t62 119q0 95 -103 148q-102 51 -239 51q-100 0 -161.5 -44t-61.5 -122z" />
<glyph unicode="&#xa8;" horiz-adv-x="819" d="M136 1180.5q0 44.5 28 70.5t74.5 26t74.5 -26t28 -70.5t-28 -72.5t-74.5 -28t-74.5 28t-28 72.5zM497 1126q-27 53 0 106t91 46q62 7 87.5 -46t0 -106t-87.5 -47q-64 -6 -91 47z" />
<glyph unicode="&#xa9;" horiz-adv-x="1435" d="M72 627q0 274 186 454q187 181 461 181t461 -181q184 -181 184 -454q0 -277 -184 -461q-186 -186 -461 -186t-461 186q-186 183 -186 461zM182 625q0 -233 156 -389q154 -160 381 -160t381 157q153 156 153 392q0 230 -151 387q-153 153 -383 153q-228 0 -381 -153 q-156 -156 -156 -387zM360 621q0 183 100.5 290t258.5 107q144 0 231 -75.5t88 -207.5l-114 -12q-12 197 -211 197q-104 0 -166 -79.5t-62 -213.5q0 -132 65.5 -210.5t166.5 -78.5q174 0 215 164l106 -21q-59 -243 -327 -243q-164 0 -257.5 104t-93.5 279z" />
<glyph unicode="&#xaa;" horiz-adv-x="741" d="M84 825q0 183 252 183h143v49q0 110 -131 110q-130 0 -139 -104l-109 12q12 91 78 139t176 48q240 0 240 -203v-248q0 -47 33 -47q4 0 20 4l12 -84q-25 -14 -59 -14q-100 0 -100 106v17q-58 -123 -226 -123q-84 0 -137 41t-53 114zM86 446v95h565v-95h-565zM209 840 q0 -76 90 -76q77 0 128.5 43.5t51.5 118.5h-129q-73 0 -107 -20t-34 -66z" />
<glyph unicode="&#xab;" horiz-adv-x="878" d="M90 432v92l316 287l43 -104l-211 -218v-16l211 -221l-50 -105zM432 432v92l316 287l43 -104l-211 -218v-16l211 -221l-50 -105z" />
<glyph unicode="&#xac;" d="M68 461v108h802v-354h-114v246h-688z" />
<glyph unicode="&#xad;" horiz-adv-x="602" d="M84 440v148h434v-148h-434z" />
<glyph unicode="&#xae;" horiz-adv-x="1435" d="M72 627q0 274 186 454q187 181 461 181t461 -181q184 -181 184 -454q0 -277 -184 -461q-186 -186 -461 -186t-461 186q-186 183 -186 461zM182 625q0 -233 156 -389q154 -160 381 -160t381 157q153 156 153 392q0 230 -151 387q-153 153 -383 153q-228 0 -381 -153 q-156 -156 -156 -387zM432 254v750h307q122 0 190 -51t68 -144q0 -88 -50.5 -141t-137.5 -54v-2q70 -7 100 -45.5t41 -126.5q6 -61 15 -79.5t34 -18.5h9l2 -92q-16 -8 -49 -8q-51 0 -79 37.5t-38 128.5q-11 97 -34.5 127t-92.5 30h-182v-311h-103zM535 668h172 q174 0 174 127q0 116 -160 116h-186v-243z" />
<glyph unicode="&#xaf;" horiz-adv-x="819" d="M145 1083v113h529v-113h-529z" />
<glyph unicode="&#xb0;" horiz-adv-x="710" d="M78 1006q0 115 78 185.5t206 70.5q121 0 196 -69t75 -179q0 -117 -80 -188.5t-209 -71.5q-121 0 -193.5 69.5t-72.5 182.5zM203.5 1007.5q-0.5 -67.5 38.5 -108.5q38 -41 100 -41q74 0 120 42.5t46 109.5q0 66 -41.5 106.5t-108.5 40.5q-68 0 -112 -41 q-42 -41 -42.5 -108.5z" />
<glyph unicode="&#xb1;" d="M68 -10v108h835v-108h-835zM68 510v108h360v320h115v-320h360v-108h-360v-322h-115v322h-360z" />
<glyph unicode="&#xb2;" horiz-adv-x="671" d="M66 604v109l184 135l82 61q26 18 59 49q60 52 60 107q0 100 -119 100q-62 0 -99.5 -36.5t-37.5 -98.5h-117q0 111 64.5 171.5t195.5 60.5q114 0 179 -47t65 -134q0 -45 -17.5 -81.5t-62.5 -77.5q-31 -29 -76 -64q-47 -33 -111 -80l-88 -63h373v-111h-534z" />
<glyph unicode="&#xb3;" horiz-adv-x="673" d="M55 774h119q3 -94 148 -94q63 0 105 28t42 74q0 97 -152 97q-9 0 -36 -2t-41 -3l-4 99q126 21 171.5 43.5t45.5 70.5q0 78 -121 78q-131 0 -131 -106h-123q0 90 68 146.5t184 56.5q112 0 182 -44.5t70 -113.5q0 -71 -46.5 -107t-154.5 -55v-4q91 6 154 -36.5t63 -123.5 q0 -87 -79.5 -140.5t-207.5 -53.5q-118 0 -187 47.5t-69 142.5z" />
<glyph unicode="&#xb4;" horiz-adv-x="819" d="M248 1090l346 346l94 -107l-379 -299z" />
<glyph unicode="&#xb5;" horiz-adv-x="1046" d="M154 -395v1286h145v-496q0 -284 205 -284q171 0 244 204v576h145v-891h-139v80l12 108q-83 -206 -293 -206q-98 0 -174 49v-426h-145z" />
<glyph unicode="&#xb6;" horiz-adv-x="1204" d="M61 848q0 188 137 290.5t384 102.5h581v-137h-461v-1432h-145v783q-496 0 -496 393zM850 -328v1329h145v-1329h-145z" />
<glyph unicode="&#xb7;" horiz-adv-x="514" d="M135 506.5q0 53.5 35 87.5t88.5 34t87.5 -34t34 -87.5t-34 -88.5t-87.5 -35t-88.5 35t-35 88.5z" />
<glyph unicode="&#xb8;" horiz-adv-x="819" d="M250 -305l67 61q35 -41 80 -41q30 0 47 17t17 41q-7 42 -33.5 53.5t-87.5 9.5h-43l57 184h88l-36 -112q194 9 194 -129q0 -69 -52.5 -110.5t-144.5 -41.5q-100 0 -153 68z" />
<glyph unicode="&#xb9;" horiz-adv-x="512" d="M35 1126l211 115h108v-635h-127v492l-151 -66z" />
<glyph unicode="&#xba;" horiz-adv-x="731" d="M82 967q0 135 78 215t213 80q128 0 202 -78.5t74 -210.5q0 -141 -75.5 -222t-213.5 -81q-129 0 -203.5 80t-74.5 217zM88 446v95h553v-95h-553zM205 969q0 -94 43.5 -149.5t116.5 -55.5q79 0 120 54t41 153q0 92 -41.5 146t-113.5 54q-78 0 -122 -53t-44 -149z" />
<glyph unicode="&#xbb;" horiz-adv-x="878" d="M88 252l211 217v16l-211 222l49 104l309 -285v-92l-315 -287zM430 252l211 217v16l-211 222l49 104l309 -285v-92l-315 -287z" />
<glyph unicode="&#xbc;" horiz-adv-x="1425" d="M35 1126l211 115h108v-635h-127v492l-151 -66zM186 0l926 1239h129l-926 -1239h-129zM809 152v104l324 379h143v-381h96v-102h-96v-152h-115v152h-352zM942 254h219v250h-6z" />
<glyph unicode="&#xbd;" horiz-adv-x="1490" d="M35 1126l211 115h108v-635h-127v492l-151 -66zM186 0l926 1239h129l-926 -1239h-129zM918 0v109l184 135l82 61q26 18 59 49q60 52 60 107q0 100 -119 100q-62 0 -99.5 -36.5t-37.5 -98.5h-117q0 111 64.5 171t195.5 60q114 0 179 -46.5t65 -133.5q0 -45 -17.5 -82 t-62.5 -78q-25 -23 -76 -63q-47 -33 -111 -80l-88 -63h373v-111h-534z" />
<glyph unicode="&#xbe;" horiz-adv-x="1501" d="M39 774h119q3 -94 147 -94q63 0 105.5 28t42.5 74q0 97 -152 97q-7 0 -18.5 -1t-28.5 -2t-31 -2l-4 99q126 21 171.5 43.5t45.5 70.5q0 78 -121 78q-131 0 -131 -106h-123q0 90 68 146.5t184 56.5q112 0 182 -44.5t70 -113.5q0 -71 -46 -107t-154 -55v-4q91 6 154 -36.5 t63 -123.5q0 -87 -79.5 -140.5t-207.5 -53.5q-118 0 -187 47.5t-69 142.5zM264 0l926 1239h129l-926 -1239h-129zM887 152v104l323 379h144v-381h96v-102h-96v-152h-115v152h-352zM1020 254h219v250h-6z" />
<glyph unicode="&#xbf;" horiz-adv-x="954" d="M66 -61q9 98 47 155.5t120 98.5q26 14 42 22t35.5 16t26.5 10.5t38.5 13l46.5 15.5q148 54 178 84q27 27 27 62q0 82 -121 82q-71 0 -156 -43l-39 104q74 59 207 59q254 0 254 -190q0 -58 -21.5 -98t-72.5 -70q-50 -31 -95 -50.5t-137 -51.5q-94 -32 -153 -70 q-76 -52 -76 -143q0 -76 63.5 -119t178.5 -43q282 0 282 192q0 2 -4 56l137 22q13 -41 13 -86q0 -148 -116 -224.5t-318 -76.5q-180 0 -283.5 75t-103.5 198zM414 862q0 58 32 90q26 25 64.5 30.5t72 -6t56 -42t18.5 -72.5q0 -55 -33 -88t-89 -33q-55 0 -88 32.5t-33 88.5z " />
<glyph unicode="&#xc0;" horiz-adv-x="1167" d="M20 0l463 1241h207l457 -1241h-162l-133 371h-541l-135 -371h-156zM334 1634l96 107l346 -346l-63 -60zM358 504h447l-213 590h-19z" />
<glyph unicode="&#xc1;" horiz-adv-x="1167" d="M20 0l463 1241h207l457 -1241h-162l-133 371h-541l-135 -371h-156zM358 504h447l-213 590h-19zM426 1395l346 346l94 -107l-379 -299z" />
<glyph unicode="&#xc2;" horiz-adv-x="1167" d="M20 0l463 1241h207l457 -1241h-162l-133 371h-541l-135 -371h-156zM307 1370l213 309h135l209 -301l-92 -41l-176 230h-14l-179 -232zM358 504h447l-213 590h-19z" />
<glyph unicode="&#xc3;" horiz-adv-x="1167" d="M20 0l463 1241h207l457 -1241h-162l-133 371h-541l-135 -371h-156zM270 1378q0 103 47 160t129 57q76 0 152 -55q75 -57 119 -57q41 0 63.5 29t22.5 77h102q0 -104 -48.5 -160.5t-139.5 -56.5q-67 0 -146 58q-79 55 -116 55q-82 0 -82 -107h-103zM358 504h447l-213 590 h-19z" />
<glyph unicode="&#xc4;" horiz-adv-x="1167" d="M20 0l463 1241h207l457 -1241h-162l-133 371h-541l-135 -371h-156zM314 1485.5q0 44.5 28 70.5t75 26t75 -26t28 -70.5t-28 -72.5t-75 -28t-75 28t-28 72.5zM358 504h447l-213 590h-19zM675 1431q-27 53 0 106t91 46q62 7 87.5 -46t0 -106t-87.5 -47q-64 -6 -91 47z" />
<glyph unicode="&#xc5;" horiz-adv-x="1167" d="M20 0l463 1241h207l457 -1241h-162l-133 371h-541l-135 -371h-156zM358 504h447l-213 590h-19zM365 1538q0 94 63.5 151.5t167.5 57.5q99 0 160 -55.5t61 -145.5q0 -97 -62 -155t-165 -58q-99 0 -162 56.5t-63 148.5zM475.5 1562.5q-5.5 -36.5 6 -68.5t40.5 -53.5 t66 -17.5q55 0 88 32.5t33 86.5q4 37 -17 66t-53.5 40.5t-70 6t-62.5 -30.5t-30.5 -61.5z" />
<glyph unicode="&#xc6;" horiz-adv-x="1716" d="M10 0l543 1241h1089v-133h-681v-412h571v-133h-571v-430h686v-133h-834v438h-461l-192 -438h-150zM410 571h403v537h-168z" />
<glyph unicode="&#xc7;" horiz-adv-x="1282" d="M74 610q0 306 162 480q163 172 428 172q221 0 372 -121q150 -123 150 -350l-146 -11q-34 353 -387 353q-198 0 -312 -136.5t-114 -375.5q0 -246 115.5 -378t325.5 -132q147 0 245 81.5t123 227.5l148 -10q-23 -194 -155.5 -308t-340.5 -122l-24 -72q194 9 194 -129 q0 -69 -52 -110.5t-144 -41.5q-101 0 -154 68l67 61q35 -41 80 -41q30 0 47 17t17 41q-7 42 -33.5 53.5t-87.5 9.5h-43l45 146q-248 19 -387 184.5t-139 443.5z" />
<glyph unicode="&#xc8;" horiz-adv-x="1054" d="M152 0v1241h829v-133h-682v-412h571v-133h-571v-430h686v-133h-833zM334 1634l96 107l346 -346l-63 -60z" />
<glyph unicode="&#xc9;" horiz-adv-x="1054" d="M152 0v1241h829v-133h-682v-412h571v-133h-571v-430h686v-133h-833zM426 1395l346 346l94 -107l-379 -299z" />
<glyph unicode="&#xca;" horiz-adv-x="1054" d="M152 0v1241h829v-133h-682v-412h571v-133h-571v-430h686v-133h-833zM307 1370l213 309h135l209 -301l-92 -41l-176 230h-14l-179 -232z" />
<glyph unicode="&#xcb;" horiz-adv-x="1054" d="M152 0v1241h829v-133h-682v-412h571v-133h-571v-430h686v-133h-833zM314 1485.5q0 44.5 28 70.5t75 26t75 -26t28 -70.5t-28 -72.5t-75 -28t-75 28t-28 72.5zM675 1431q-27 53 0 106t91 46q62 7 87.5 -46t0 -106t-87.5 -47q-64 -6 -91 47z" />
<glyph unicode="&#xcc;" horiz-adv-x="450" d="M-27 1634l97 107l346 -346l-64 -60zM152 0v1241h147v-1241h-147z" />
<glyph unicode="&#xcd;" horiz-adv-x="450" d="M66 1395l346 346l94 -107l-379 -299zM152 0v1241h147v-1241h-147z" />
<glyph unicode="&#xce;" horiz-adv-x="450" d="M-53 1370l213 309h135l209 -301l-92 -41l-176 230h-15l-178 -232zM152 0v1241h147v-1241h-147z" />
<glyph unicode="&#xcf;" horiz-adv-x="450" d="M-48 1485.5q0 44.5 28 70.5q29 26 76 26t75 -26t28 -70.5t-28 -72.5t-75 -28t-76 28q-28 28 -28 72.5zM152 0v1241h147v-1241h-147zM315 1431q-27 53 0 106t91 46q62 7 87.5 -46t0 -106t-87.5 -47q-64 -6 -91 47z" />
<glyph unicode="&#xd0;" horiz-adv-x="1339" d="M35 567v123h117v551h469q261 0 423 -149q160 -151 160 -441q0 -289 -176 -471q-174 -180 -461 -180h-415v567h-117zM299 135h256q229 0 363 137q133 136 133 367q0 218 -120 342.5t-325 124.5h-307v-416h336v-123h-336v-432z" />
<glyph unicode="&#xd1;" horiz-adv-x="1277" d="M152 0v1241h210l496 -823q99 -167 123 -221h10v1044h135v-1241h-180l-649 1090h-10v-1090h-135zM315 1378q0 103 47 160t130 57q75 0 151 -55q75 -57 119 -57q41 0 63.5 29t22.5 77h102q0 -104 -48.5 -160.5t-139.5 -56.5q-67 0 -146 58q-79 55 -116 55q-82 0 -82 -107 h-103z" />
<glyph unicode="&#xd2;" horiz-adv-x="1388" d="M84 625q0 292 170 465q169 172 457 172q270 0 434 -170q160 -174 160 -461q0 -301 -168 -475q-170 -176 -455 -176q-274 0 -436 174t-162 471zM238 625q0 -237 120.5 -375.5t325.5 -138.5q215 0 341 140t126 378q0 233 -120 368.5t-324 135.5q-217 0 -343 -136.5 t-126 -371.5zM457 1634l96 107l346 -346l-63 -60z" />
<glyph unicode="&#xd3;" horiz-adv-x="1388" d="M84 625q0 292 170 465q169 172 457 172q270 0 434 -170q160 -174 160 -461q0 -301 -168 -475q-170 -176 -455 -176q-274 0 -436 174t-162 471zM238 625q0 -237 120.5 -375.5t325.5 -138.5q215 0 341 140t126 378q0 233 -120 368.5t-324 135.5q-217 0 -343 -136.5 t-126 -371.5zM549 1395l346 346l94 -107l-379 -299z" />
<glyph unicode="&#xd4;" horiz-adv-x="1388" d="M84 625q0 292 170 465q169 172 457 172q270 0 434 -170q160 -174 160 -461q0 -301 -168 -475q-170 -176 -455 -176q-274 0 -436 174t-162 471zM238 625q0 -237 120.5 -375.5t325.5 -138.5q215 0 341 140t126 378q0 233 -120 368.5t-324 135.5q-217 0 -343 -136.5 t-126 -371.5zM430 1370l213 309h135l209 -301l-92 -41l-176 230h-14l-179 -232z" />
<glyph unicode="&#xd5;" horiz-adv-x="1388" d="M84 625q0 292 170 465q169 172 457 172q270 0 434 -170q160 -174 160 -461q0 -301 -168 -475q-170 -176 -455 -176q-274 0 -436 174t-162 471zM238 625q0 -237 120.5 -375.5t325.5 -138.5q215 0 341 140t126 378q0 233 -120 368.5t-324 135.5q-217 0 -343 -136.5 t-126 -371.5zM393 1378q0 103 47 160t129 57q76 0 152 -55q75 -57 119 -57q41 0 63.5 29t22.5 77h102q0 -104 -48.5 -160.5t-139.5 -56.5q-67 0 -146 58q-79 55 -116 55q-82 0 -82 -107h-103z" />
<glyph unicode="&#xd6;" horiz-adv-x="1388" d="M84 625q0 292 170 465q169 172 457 172q270 0 434 -170q160 -174 160 -461q0 -301 -168 -475q-170 -176 -455 -176q-274 0 -436 174t-162 471zM238 625q0 -237 120.5 -375.5t325.5 -138.5q215 0 341 140t126 378q0 233 -120 368.5t-324 135.5q-217 0 -343 -136.5 t-126 -371.5zM437 1485.5q0 44.5 28 70.5t74.5 26t74.5 -26t28 -70.5t-28 -72.5t-74.5 -28t-74.5 28t-28 72.5zM798 1431q-27 53 0 106t91 46q62 7 87.5 -46t0 -106t-87.5 -47q-64 -6 -91 47z" />
<glyph unicode="&#xd7;" d="M127 240l283 282l-283 281l76 78l282 -283l283 283l76 -78l-281 -281l281 -282l-76 -78l-283 282l-282 -282z" />
<glyph unicode="&#xd8;" horiz-adv-x="1386" d="M80 14l145 164q-141 176 -141 447q0 292 170 465q169 172 457 172q219 0 368 -113l121 135l90 -70l-127 -145q142 -171 142 -438q0 -301 -168 -475q-170 -176 -455 -176q-228 0 -375 118l-137 -155zM238 625q0 -201 88 -332l659 747q-113 93 -278 93q-217 0 -343 -136.5 t-126 -371.5zM401 207q116 -96 283 -96q215 0 341 140t126 378q0 199 -88 327z" />
<glyph unicode="&#xd9;" horiz-adv-x="1243" d="M137 465v776h148v-758q0 -184 90.5 -277t259.5 -93q153 0 238 91.5t85 262.5v774h148v-772q0 -233 -126.5 -361t-350.5 -128q-235 0 -363.5 126t-128.5 359zM369 1634l96 107l346 -346l-63 -60z" />
<glyph unicode="&#xda;" horiz-adv-x="1243" d="M137 465v776h148v-758q0 -184 90.5 -277t259.5 -93q153 0 238 91.5t85 262.5v774h148v-772q0 -233 -126.5 -361t-350.5 -128q-235 0 -363.5 126t-128.5 359zM461 1395l346 346l94 -107l-379 -299z" />
<glyph unicode="&#xdb;" horiz-adv-x="1243" d="M137 465v776h148v-758q0 -184 90.5 -277t259.5 -93q153 0 238 91.5t85 262.5v774h148v-772q0 -233 -126.5 -361t-350.5 -128q-235 0 -363.5 126t-128.5 359zM342 1370l213 309h135l209 -301l-92 -41l-176 230h-15l-178 -232z" />
<glyph unicode="&#xdc;" horiz-adv-x="1243" d="M137 465v776h148v-758q0 -184 90.5 -277t259.5 -93q153 0 238 91.5t85 262.5v774h148v-772q0 -233 -126.5 -361t-350.5 -128q-235 0 -363.5 126t-128.5 359zM349 1485.5q0 44.5 28 70.5t74.5 26t74.5 -26t28 -70.5t-28 -72.5t-74.5 -28t-74.5 28t-28 72.5zM710 1431 q-27 53 0 106t91 46q62 7 87.5 -46t0 -106t-87.5 -47q-64 -6 -91 47z" />
<glyph unicode="&#xdd;" horiz-adv-x="1120" d="M12 1241h166l373 -631h10l381 631h166l-485 -784v-457h-148v457zM420 1395l346 346l94 -107l-379 -299z" />
<glyph unicode="&#xde;" horiz-adv-x="1077" d="M152 0v1241h147v-235h328q191 0 298 -86t107 -254q0 -183 -112.5 -281t-315.5 -98h-305v-287h-147zM299 420h305q129 0 199.5 63.5t70.5 173.5q0 102 -62 159.5t-181 57.5h-332v-454z" />
<glyph unicode="&#xdf;" horiz-adv-x="1189" d="M39 764v127h119q30 0 30 27v22q0 184 142 279q140 96 344 96q186 0 295.5 -71.5t109.5 -194.5q0 -90 -57 -160q-24 -28 -76 -53q-71 -36 -90 -43q-12 -5 -53 -21t-68 -27q-98 -37 -98 -102q0 -47 42 -75.5t132 -49.5q83 -21 124.5 -35.5t92.5 -42.5q107 -61 107 -192 q0 -128 -98 -198t-263 -70q-113 0 -198 40.5t-119 116.5l114 80q55 -113 220 -113q89 0 141.5 34t52.5 100q0 63 -49 97t-160 62q-109 23 -186 66q-94 49 -94 172q0 87 54.5 141t160.5 88q123 41 175 79t52 101q0 71 -68.5 108.5t-191.5 37.5q-344 0 -344 -250v-940h-146 v764h-149z" />
<glyph unicode="&#xe0;" horiz-adv-x="980" d="M82 225q0 283 387 283h219v90q0 93 -54 140.5t-153 47.5q-205 0 -229 -178l-141 10q17 140 114 215.5t258 75.5q351 0 351 -313v-399q0 -88 53 -88q22 0 39 10l24 -115q-40 -24 -96 -24q-149 0 -149 176v12q-86 -188 -314 -188q-134 0 -221.5 65t-87.5 180zM236 248 q0 -68 48 -106t128 -36q123 2 200.5 75.5t77.5 215.5h-201q-253 0 -253 -149zM236 1307l96 106l346 -346l-64 -59z" />
<glyph unicode="&#xe1;" horiz-adv-x="980" d="M82 225q0 283 387 283h219v90q0 93 -54 140.5t-153 47.5q-205 0 -229 -178l-141 10q17 140 114 215.5t258 75.5q351 0 351 -313v-399q0 -88 53 -88q22 0 39 10l24 -115q-40 -24 -96 -24q-149 0 -149 176v12q-86 -188 -314 -188q-134 0 -221.5 65t-87.5 180zM236 248 q0 -68 48 -106t128 -36q123 2 200.5 75.5t77.5 215.5h-201q-253 0 -253 -149zM328 1067l346 346l94 -106l-379 -299z" />
<glyph unicode="&#xe2;" horiz-adv-x="980" d="M82 225q0 283 387 283h219v90q0 93 -54 140.5t-153 47.5q-205 0 -229 -178l-141 10q17 140 114 215.5t258 75.5q351 0 351 -313v-399q0 -88 53 -88q22 0 39 10l24 -115q-40 -24 -96 -24q-149 0 -149 176v12q-86 -188 -314 -188q-134 0 -221.5 65t-87.5 180zM209 1042 l213 310h135l209 -301l-92 -41l-176 229h-15l-178 -231zM236 248q0 -68 48 -106t128 -36q123 2 200.5 75.5t77.5 215.5h-201q-253 0 -253 -149z" />
<glyph unicode="&#xe3;" horiz-adv-x="980" d="M82 225q0 283 387 283h219v90q0 93 -54 140.5t-153 47.5q-205 0 -229 -178l-141 10q17 140 114 215.5t258 75.5q351 0 351 -313v-399q0 -88 53 -88q22 0 39 10l24 -115q-40 -24 -96 -24q-149 0 -149 176v12q-86 -188 -314 -188q-134 0 -221.5 65t-87.5 180zM172 1051 q0 103 47 160t129 57q75 0 152 -56q75 -57 118 -57q41 0 64 29.5t23 77.5h102q0 -104 -49 -161t-140 -57q-66 0 -145 58q-79 55 -117 55q-82 0 -82 -106h-102zM236 248q0 -68 48 -106t128 -36q123 2 200.5 75.5t77.5 215.5h-201q-253 0 -253 -149z" />
<glyph unicode="&#xe4;" horiz-adv-x="980" d="M82 225q0 283 387 283h219v90q0 93 -54 140.5t-153 47.5q-205 0 -229 -178l-141 10q17 140 114 215.5t258 75.5q351 0 351 -313v-399q0 -88 53 -88q22 0 39 10l24 -115q-40 -24 -96 -24q-149 0 -149 176v12q-86 -188 -314 -188q-134 0 -221.5 65t-87.5 180zM216 1158 q0 45 28 71t74.5 26t74.5 -26t28 -71t-28 -73t-74.5 -28t-74.5 28t-28 73zM236 248q0 -68 48 -106t128 -36q123 2 200.5 75.5t77.5 215.5h-201q-253 0 -253 -149zM577 1104q-27 53 0 105.5t91 45.5q62 7 87.5 -45.5t0 -105.5t-87.5 -47q-64 -6 -91 47z" />
<glyph unicode="&#xe5;" horiz-adv-x="980" d="M82 225q0 283 387 283h219v90q0 93 -54 140.5t-153 47.5q-205 0 -229 -178l-141 10q17 140 114 215.5t258 75.5q351 0 351 -313v-399q0 -88 53 -88q22 0 39 10l24 -115q-40 -24 -96 -24q-149 0 -149 176v12q-86 -188 -314 -188q-134 0 -221.5 65t-87.5 180zM236 248 q0 -68 48 -106t128 -36q123 2 200.5 75.5t77.5 215.5h-201q-253 0 -253 -149zM266 1210q0 94 64 151.5t168 57.5q99 0 160 -55t61 -145q0 -97 -62 -155t-165 -58q-99 0 -162.5 56.5t-63.5 147.5zM377 1234.5q-6 -36.5 5.5 -68t40.5 -53t66 -17.5q55 0 88 32t33 86 q4 37 -17 66t-53 40.5t-69.5 6t-62.5 -30.5t-31 -61.5z" />
<glyph unicode="&#xe6;" horiz-adv-x="1564" d="M78 229q0 277 387 277h219v92q0 91 -55.5 139.5t-155.5 48.5q-201 0 -225 -178l-142 10q17 140 114.5 215.5t258.5 75.5q248 0 316 -164q108 164 311 164q182 0 284.5 -106t102.5 -301q0 -4 -4 -82h-666q4 -152 76 -233t203 -81q198 0 239 177l136 -17 q-65 -286 -385 -286q-113 0 -203 55.5t-137 154.5q-39 -93 -129.5 -151.5t-219.5 -58.5q-147 0 -236 67t-89 182zM231 248q0 -67 49 -104.5t132 -37.5q122 0 198 73t76 216h-201q-254 0 -254 -147zM831 539h510q-5 118 -66 182.5t-171 64.5t-181.5 -63.5t-91.5 -183.5z" />
<glyph unicode="&#xe7;" horiz-adv-x="954" d="M72 451q0 197 118 327q119 131 306 131q182 0 285.5 -91.5t109.5 -242.5l-141 -6q-21 217 -248 217q-134 0 -207.5 -91t-73.5 -251q0 -159 74.5 -247t204.5 -88q205 0 245 184l142 -14q-59 -290 -375 -299l-25 -72q195 9 195 -129q0 -69 -52.5 -110.5t-144.5 -41.5 q-100 0 -153 68l67 61q35 -41 80 -41q30 0 47 17t17 41q-7 42 -33.5 53.5t-87.5 9.5h-43l45 148q-165 23 -258.5 149t-93.5 318z" />
<glyph unicode="&#xe8;" horiz-adv-x="985" d="M72 440q0 208 123 340q120 129 319 129q187 0 293 -106t106 -297q0 -4 -4 -82h-690q6 -154 82 -236t213 -82q207 0 248 177l135 -17q-65 -286 -397 -286q-203 0 -315.5 120.5t-112.5 339.5zM227 541h535q-5 119 -68.5 183t-181.5 64q-117 0 -191 -63.5t-94 -183.5z M260 1307l96 106l346 -346l-63 -59z" />
<glyph unicode="&#xe9;" horiz-adv-x="985" d="M72 440q0 208 123 340q120 129 319 129q187 0 293 -106t106 -297q0 -4 -4 -82h-690q6 -154 82 -236t213 -82q207 0 248 177l135 -17q-65 -286 -397 -286q-203 0 -315.5 120.5t-112.5 339.5zM227 541h535q-5 119 -68.5 183t-181.5 64q-117 0 -191 -63.5t-94 -183.5z M352 1067l346 346l95 -106l-379 -299z" />
<glyph unicode="&#xea;" horiz-adv-x="985" d="M72 440q0 208 123 340q120 129 319 129q187 0 293 -106t106 -297q0 -4 -4 -82h-690q6 -154 82 -236t213 -82q207 0 248 177l135 -17q-65 -286 -397 -286q-203 0 -315.5 120.5t-112.5 339.5zM227 541h535q-5 119 -68.5 183t-181.5 64q-117 0 -191 -63.5t-94 -183.5z M233 1042l213 310h136l209 -301l-93 -41l-176 229h-14l-178 -231z" />
<glyph unicode="&#xeb;" horiz-adv-x="985" d="M72 440q0 208 123 340q120 129 319 129q187 0 293 -106t106 -297q0 -4 -4 -82h-690q6 -154 82 -236t213 -82q207 0 248 177l135 -17q-65 -286 -397 -286q-203 0 -315.5 120.5t-112.5 339.5zM227 541h535q-5 119 -68.5 183t-181.5 64q-117 0 -191 -63.5t-94 -183.5z M240 1158q0 45 28 71t75 26t75 -26t28 -71t-28 -73t-75 -28t-75 28t-28 73zM601 1104q-27 53 0 105.5t91 45.5q62 7 87.5 -45.5t0 -105.5t-87.5 -47q-64 -6 -91 47z" />
<glyph unicode="&#xec;" horiz-adv-x="452" d="M-25 1307l97 106l346 -346l-64 -59zM154 0v891h145v-891h-145z" />
<glyph unicode="&#xed;" horiz-adv-x="452" d="M68 1067l346 346l94 -106l-379 -299zM154 0v891h145v-891h-145z" />
<glyph unicode="&#xee;" horiz-adv-x="452" d="M-51 1042l213 310h135l209 -301l-92 -41l-176 229h-15l-178 -231zM154 0v891h145v-891h-145z" />
<glyph unicode="&#xef;" horiz-adv-x="452" d="M-46 1158q0 45 28 71q29 26 76 26t75 -26t28 -71t-28 -73t-75 -28t-76 28q-28 28 -28 73zM154 0v891h145v-891h-145zM317 1104q-27 53 0 105.5t91 45.5q62 7 87.5 -45.5t0 -105.5t-87.5 -47q-64 -6 -91 47z" />
<glyph unicode="&#xf0;" horiz-adv-x="1036" d="M72 432q0 199 118 320q116 122 316 122q112 0 184.5 -34t122.5 -109q-49 243 -225 363l-240 -142l-61 90l190 111q-116 49 -280 61l32 113q210 -15 375 -98l170 98l64 -86l-133 -78q272 -211 272 -612q0 -267 -122 -418t-341 -151q-203 0 -321 124q-121 127 -121 326z M223 428q0 -144 79.5 -231.5t213.5 -87.5q146 0 225.5 89t79.5 246q0 145 -78.5 224.5t-216.5 79.5q-146 0 -224.5 -82.5t-78.5 -237.5z" />
<glyph unicode="&#xf1;" horiz-adv-x="1038" d="M154 0v891h139v-82q0 -14 -4 -84q85 184 293 184q157 0 240 -90.5t83 -273.5v-545h-145v502q0 276 -209 276q-179 0 -252 -205v-573h-145zM225 1051q0 103 47 160t129 57q75 0 152 -56q75 -57 119 -57q40 0 63 29.5t23 77.5h102q0 -104 -48.5 -161t-139.5 -57 q-67 0 -146 58q-79 55 -116 55q-82 0 -82 -106h-103z" />
<glyph unicode="&#xf2;" horiz-adv-x="1019" d="M72 438q0 209 121 342q120 129 331 129q197 0 310.5 -125.5t113.5 -337.5q0 -209 -119 -337q-120 -129 -331 -129q-200 0 -312 124q-114 123 -114 334zM221 440q0 -152 79 -243t210 -91t209 91t78 243q0 155 -77 248.5t-206 93.5q-135 0 -214 -92t-79 -250zM272 1307 l97 106l346 -346l-64 -59z" />
<glyph unicode="&#xf3;" horiz-adv-x="1019" d="M72 438q0 209 121 342q120 129 331 129q197 0 310.5 -125.5t113.5 -337.5q0 -209 -119 -337q-120 -129 -331 -129q-200 0 -312 124q-114 123 -114 334zM221 440q0 -152 79 -243t210 -91t209 91t78 243q0 155 -77 248.5t-206 93.5q-135 0 -214 -92t-79 -250zM365 1067 l346 346l94 -106l-379 -299z" />
<glyph unicode="&#xf4;" horiz-adv-x="1019" d="M72 438q0 209 121 342q120 129 331 129q197 0 310.5 -125.5t113.5 -337.5q0 -209 -119 -337q-120 -129 -331 -129q-200 0 -312 124q-114 123 -114 334zM221 440q0 -152 79 -243t210 -91t209 91t78 243q0 155 -77 248.5t-206 93.5q-135 0 -214 -92t-79 -250zM246 1042 l213 310h135l209 -301l-92 -41l-176 229h-15l-178 -231z" />
<glyph unicode="&#xf5;" horiz-adv-x="1019" d="M72 438q0 209 121 342q120 129 331 129q197 0 310.5 -125.5t113.5 -337.5q0 -209 -119 -337q-120 -129 -331 -129q-200 0 -312 124q-114 123 -114 334zM209 1051q0 103 47 160t129 57q75 0 152 -56q75 -57 118 -57q40 0 63 29.5t23 77.5h103q0 -104 -49 -161t-140 -57 q-66 0 -145 58q-79 55 -117 55q-82 0 -82 -106h-102zM221 440q0 -152 79 -243t210 -91t209 91t78 243q0 155 -77 248.5t-206 93.5q-135 0 -214 -92t-79 -250z" />
<glyph unicode="&#xf6;" horiz-adv-x="1019" d="M72 438q0 209 121 342q120 129 331 129q197 0 310.5 -125.5t113.5 -337.5q0 -209 -119 -337q-120 -129 -331 -129q-200 0 -312 124q-114 123 -114 334zM221 440q0 -152 79 -243t210 -91t209 91t78 243q0 155 -77 248.5t-206 93.5q-135 0 -214 -92t-79 -250zM253 1158 q0 45 28 71t74.5 26t74.5 -26t28 -71t-28 -73t-74.5 -28t-74.5 28t-28 73zM614 1104q-27 53 0 105.5t91 45.5q62 7 87.5 -45.5t0 -105.5t-87.5 -47q-64 -6 -91 47z" />
<glyph unicode="&#xf7;" d="M68 461v108h835v-108h-835zM367 209q0 50 31.5 81.5t82.5 31.5t83 -31.5t32 -81.5q0 -51 -31 -82q-25 -25 -61 -30t-67.5 6.5t-52.5 40t-17 65.5zM369 823q0 50 31.5 81.5t82.5 31.5t83 -31.5t32 -81.5q0 -51 -31 -82q-25 -25 -61 -30t-67.5 6.5t-52.5 40t-17 65.5z" />
<glyph unicode="&#xf8;" horiz-adv-x="1019" d="M72 438q0 209 121 342q120 129 331 129q146 0 246 -69l82 96l88 -66l-88 -106q96 -128 96 -318q0 -209 -119 -337q-120 -129 -331 -129q-148 0 -248 69l-84 -100l-88 67l90 107q-96 122 -96 315zM221 440q0 -115 47 -198l410 487q-68 51 -164 51q-135 0 -214 -91 t-79 -249zM342 158q70 -52 168 -52q131 0 209 90.5t78 243.5q0 122 -47 205z" />
<glyph unicode="&#xf9;" horiz-adv-x="1024" d="M131 352v539h145v-496q0 -284 205 -284q171 0 244 204v576h145v-891h-139v80l12 108q-83 -206 -292 -206q-320 0 -320 370zM244 1307l96 106l346 -346l-63 -59z" />
<glyph unicode="&#xfa;" horiz-adv-x="1024" d="M131 352v539h145v-496q0 -284 205 -284q171 0 244 204v576h145v-891h-139v80l12 108q-83 -206 -292 -206q-320 0 -320 370zM336 1067l346 346l94 -106l-379 -299z" />
<glyph unicode="&#xfb;" horiz-adv-x="1024" d="M131 352v539h145v-496q0 -284 205 -284q171 0 244 204v576h145v-891h-139v80l12 108q-83 -206 -292 -206q-320 0 -320 370zM217 1042l213 310h135l209 -301l-92 -41l-176 229h-14l-179 -231z" />
<glyph unicode="&#xfc;" horiz-adv-x="1024" d="M131 352v539h145v-496q0 -284 205 -284q171 0 244 204v576h145v-891h-139v80l12 108q-83 -206 -292 -206q-320 0 -320 370zM224 1158q0 45 28 71t74.5 26t74.5 -26t28 -71t-28 -73t-74.5 -28t-74.5 28t-28 73zM585 1104q-27 53 0 105.5t91 45.5q62 7 87.5 -45.5t0 -105.5 t-87.5 -47q-64 -6 -91 47z" />
<glyph unicode="&#xfd;" horiz-adv-x="911" d="M18 891h156l285 -739h16l266 739h152l-320 -854v-197q0 -123 -58.5 -182t-160.5 -59q-109 0 -166 51l50 114q40 -34 98 -34q91 0 100 75q5 34 2 215h-84zM307 1067l346 346l95 -106l-379 -299z" />
<glyph unicode="&#xfe;" horiz-adv-x="1075" d="M154 -395v1702h145v-402q0 -85 -6 -168q102 172 315 172q180 0 288 -119.5t108 -328.5q0 -229 -117 -355t-307 -126q-192 0 -281 147v-522h-145zM289 432q0 -155 74 -241.5t204 -86.5q132 0 208.5 91t76.5 254q0 159 -74 246t-203 87q-145 0 -215 -102q-71 -103 -71 -248 z" />
<glyph unicode="&#xff;" horiz-adv-x="911" d="M18 891h156l285 -739h16l266 739h152l-320 -854v-197q0 -123 -58.5 -182t-160.5 -59q-109 0 -166 51l50 114q40 -34 98 -34q91 0 100 75q5 34 2 215h-84zM195 1158q0 45 28 71t75 26t75 -26t28 -71t-28 -73t-75 -28t-75 28t-28 73zM556 1104q-27 53 0 105.5t91 45.5 q62 7 87.5 -45.5t0 -105.5t-87.5 -47q-64 -6 -91 47z" />
<glyph unicode="&#x152;" horiz-adv-x="1863" d="M82 625q0 290 167 453t462 163h1079v-133h-682v-412h571v-133h-571v-430h686v-133h-1112q-288 0 -444 162.5t-156 462.5zM238 625q0 -232 119 -363t327 -131h277v979h-254q-221 0 -345 -127t-124 -358z" />
<glyph unicode="&#x153;" horiz-adv-x="1685" d="M72 438q0 209 121 342q120 129 331 129q251 0 346 -194q108 194 351 194q186 0 289.5 -107t103.5 -302q0 -4 -4 -82h-674q6 -152 79 -232t206 -80q200 0 241 177l135 -17q-65 -286 -391 -286q-248 0 -350 188q-108 -188 -358 -188q-198 0 -312 123.5t-114 334.5zM221 440 q0 -154 78 -244t211 -90q131 0 209 90.5t78 243.5q0 158 -77 250t-206 92q-135 0 -214 -91.5t-79 -250.5zM944 537h518q-5 120 -67 184.5t-176 64.5q-110 0 -182.5 -64.5t-92.5 -184.5z" />
<glyph unicode="&#x178;" horiz-adv-x="1120" d="M12 1241h166l373 -631h10l381 631h166l-485 -784v-457h-148v457zM308 1485.5q0 44.5 28 70.5t74.5 26t74.5 -26t28 -70.5t-28 -72.5t-74.5 -28t-74.5 28t-28 72.5zM669 1431q-27 53 0 106t91 46q62 7 87.5 -46t0 -106t-87.5 -47q-64 -6 -91 47z" />
<glyph unicode="&#x2c6;" horiz-adv-x="819" d="M129 1065l213 309h135l209 -301l-92 -41l-176 230h-15l-178 -232z" />
<glyph unicode="&#x2dc;" horiz-adv-x="819" d="M92 1073q0 103 47 160t129 57q76 0 152 -55q75 -57 119 -57q41 0 63.5 29t22.5 77h102q0 -104 -48.5 -160.5t-139.5 -56.5q-71 0 -148 57q-80 56 -115 56q-81 0 -81 -107h-103z" />
<glyph unicode="&#x2000;" horiz-adv-x="873" />
<glyph unicode="&#x2001;" horiz-adv-x="1747" />
<glyph unicode="&#x2002;" horiz-adv-x="873" />
<glyph unicode="&#x2003;" horiz-adv-x="1747" />
<glyph unicode="&#x2004;" horiz-adv-x="582" />
<glyph unicode="&#x2005;" horiz-adv-x="436" />
<glyph unicode="&#x2006;" horiz-adv-x="291" />
<glyph unicode="&#x2007;" horiz-adv-x="291" />
<glyph unicode="&#x2008;" horiz-adv-x="218" />
<glyph unicode="&#x2009;" horiz-adv-x="349" />
<glyph unicode="&#x200a;" horiz-adv-x="97" />
<glyph unicode="&#x2010;" horiz-adv-x="602" d="M84 440v148h434v-148h-434z" />
<glyph unicode="&#x2011;" horiz-adv-x="602" d="M84 440v148h434v-148h-434z" />
<glyph unicode="&#x2012;" horiz-adv-x="602" d="M84 440v148h434v-148h-434z" />
<glyph unicode="&#x2013;" horiz-adv-x="1210" d="M125 467v123h960v-123h-960z" />
<glyph unicode="&#x2014;" horiz-adv-x="1947" d="M125 467v123h1698v-123h-1698z" />
<glyph unicode="&#x2018;" horiz-adv-x="464" d="M88 1020q0 216 254 274l29 -77q-170 -53 -170 -168v-21q30 23 84 23q39 0 65.5 -27t26.5 -68q0 -49 -36.5 -79.5t-88.5 -30.5q-74 0 -119 49.5t-45 124.5z" />
<glyph unicode="&#x2019;" horiz-adv-x="464" d="M88 1155q0 49 37 80t88 31q74 0 119 -49.5t45 -124.5q0 -217 -254 -275l-29 78q170 53 170 168v20q-28 -22 -84 -22q-39 0 -65.5 26.5t-26.5 67.5z" />
<glyph unicode="&#x201a;" horiz-adv-x="452" d="M82 78q0 49 36.5 79.5t88.5 30.5q74 0 119 -49.5t45 -124.5q0 -216 -254 -274l-29 78q170 53 170 168v20q-28 -22 -84 -22q-39 0 -65.5 26.5t-26.5 67.5z" />
<glyph unicode="&#x201c;" horiz-adv-x="819" d="M88 1020q0 216 254 274l29 -77q-170 -53 -170 -168v-21q30 23 84 23q39 0 65.5 -27t26.5 -68q0 -49 -36.5 -79.5t-88.5 -30.5q-74 0 -119 49.5t-45 124.5zM442 1020q0 216 254 274l29 -77q-170 -53 -170 -168v-21q30 23 84 23q39 0 65.5 -27t26.5 -68q0 -49 -36.5 -79.5 t-88.5 -30.5q-74 0 -119 49.5t-45 124.5z" />
<glyph unicode="&#x201d;" horiz-adv-x="817" d="M88 1155q0 49 37 80t88 31q74 0 119 -49.5t45 -124.5q0 -217 -254 -275l-29 78q170 53 170 168v20q-28 -22 -84 -22q-39 0 -65.5 26.5t-26.5 67.5zM440 1155q0 49 37 80t88 31q74 0 119 -49.5t45 -124.5q0 -217 -254 -275l-29 78q170 53 170 168v20q-28 -22 -84 -22 q-39 0 -65.5 26.5t-26.5 67.5z" />
<glyph unicode="&#x201e;" horiz-adv-x="817" d="M82 78q0 49 36.5 79.5t88.5 30.5q74 0 119 -49.5t45 -124.5q0 -216 -254 -274l-29 78q170 53 170 168v20q-28 -22 -84 -22q-39 0 -65.5 26.5t-26.5 67.5zM434 78q0 49 36.5 79.5t88.5 30.5q74 0 119 -49.5t45 -124.5q0 -216 -254 -274l-29 78q170 53 170 168v20 q-28 -22 -84 -22q-39 0 -65.5 26.5t-26.5 67.5z" />
<glyph unicode="&#x2022;" horiz-adv-x="688" d="M185 532.5q0 71.5 44 114.5q43 43 115.5 43t116.5 -43q43 -43 43 -114.5t-43 -114.5q-44 -44 -116.5 -44t-115.5 44q-44 43 -44 114.5z" />
<glyph unicode="&#x2026;" horiz-adv-x="1538" d="M121 107q0 54 35 88t88.5 34t87.5 -34t34 -88t-34 -89t-87.5 -35t-88.5 35t-35 89zM647 107q0 54 35 88t88.5 34t87.5 -34t34 -88t-34 -89t-87.5 -35t-88.5 35t-35 89zM1173 107q0 54 35 88t88.5 34t87.5 -34t34 -88t-34 -89t-87.5 -35t-88.5 35t-35 89z" />
<glyph unicode="&#x202f;" horiz-adv-x="349" />
<glyph unicode="&#x2039;" horiz-adv-x="536" d="M90 432v92l316 287l43 -104l-211 -218v-16l211 -221l-50 -105z" />
<glyph unicode="&#x203a;" horiz-adv-x="536" d="M88 252l211 217v16l-211 222l49 104l309 -285v-92l-315 -287z" />
<glyph unicode="&#x205f;" horiz-adv-x="436" />
<glyph unicode="&#x20ac;" horiz-adv-x="1159" d="M27 381v102h151q-4 36 -4 86q0 8 1 32.5t1 31.5h-149v102h166q44 194 181.5 303t334.5 109q266 0 401 -184l-94 -91q-112 154 -299 154q-149 0 -247.5 -75.5t-133.5 -215.5h422v-102h-436q-3 -15 -3 -51q0 -45 7 -99h432v-102h-414q77 -277 369 -277q197 0 303 121 l84 -86q-139 -157 -395 -157q-200 0 -333.5 104.5t-176.5 294.5h-168z" />
<glyph unicode="&#x2122;" horiz-adv-x="1361" d="M31 1153v88h481v-88h-193v-440h-100v440h-188zM567 713v528h127l195 -416h8l199 416h125v-528h-88v401h-9l-190 -401h-82l-190 401h-7v-401h-88z" />
<glyph unicode="&#x25fc;" horiz-adv-x="890" d="M0 0v891h891v-891h-891z" />
</font>
</defs>
</svg>
