<?xml version="1.0" standalone="no"?>
<!DOCTYPE svg PUBLIC "-//W3C//DTD SVG 1.1//EN" "http://www.w3.org/Graphics/SVG/1.1/DTD/svg11.dtd" >
<svg xmlns="http://www.w3.org/2000/svg" xmlns:xlink="http://www.w3.org/1999/xlink" version="1.1">
<metadata></metadata>
<defs>
<font id="equitan_sanssemibold" horiz-adv-x="970" >
<font-face units-per-em="2048" ascent="1556" descent="-492" />
<missing-glyph horiz-adv-x="358" />
<glyph unicode="&#xfb01;" horiz-adv-x="1056" d="M31 723v168h104q31 0 31 29v67q0 166 80.5 248t222.5 82q95 0 149 -31l-53 -156q-32 19 -78 19q-66 0 -95.5 -41.5t-29.5 -132.5v-84h556v-891h-195v723h-361v-723h-196v723h-135zM690 1182q0 56 35 89.5t96 33.5t96 -33.5t35 -89.5q0 -58 -34 -92q-35 -35 -96.5 -35 t-96.5 35t-35 92z" />
<glyph unicode="&#xfb02;" horiz-adv-x="1073" d="M31 723v168h104q31 0 31 29v67q0 166 81.5 248t223.5 82q94 0 152 -37l-56 -154q-38 23 -75 23q-68 0 -99 -41.5t-31 -132.5v-84h207v-168h-207v-723h-196v723h-135zM739 0v1307h195v-1307h-195z" />
<glyph horiz-adv-x="0" />
<glyph unicode="&#xd;" horiz-adv-x="681" />
<glyph unicode=" "  horiz-adv-x="358" />
<glyph unicode="&#x09;" horiz-adv-x="358" />
<glyph unicode="&#xa0;" horiz-adv-x="358" />
<glyph unicode="!" horiz-adv-x="598" d="M156 115q0 60 38.5 96.5t104.5 36.5t104.5 -36.5t38.5 -96.5q0 -64 -39 -97q-38 -37 -104 -37t-104 37q-39 33 -39 97zM203 748v530h194v-526q0 -127 -35 -398h-122q-37 286 -37 394z" />
<glyph unicode="&#x22;" horiz-adv-x="677" d="M88 1241h211l-37 -453h-135zM375 1241h211l-37 -453h-135z" />
<glyph unicode="#" horiz-adv-x="1306" d="M123 201v151h207v346h-207v152h207v203h159v-203h326v203h160v-203h209v-152h-209v-346h209v-151h-209v-201h-160v201h-326v-201h-159v201h-207zM489 352h326v346h-326v-346z" />
<glyph unicode="$" horiz-adv-x="1056" d="M72 330l190 14q41 -141 209 -162v338q-75 14 -115.5 24.5t-91.5 33.5q-44 17 -88 51q-80 73 -80 190q0 140 95.5 222t267.5 94v176h139v-178q161 -18 253.5 -97t104.5 -217l-182 -24q-20 87 -64.5 130.5t-123.5 55.5v-324q75 -12 119.5 -23t97.5 -34q52 -21 94 -55 q39 -32 62.5 -85t23.5 -116q0 -141 -105 -221t-280 -94v-197h-139v197q-346 24 -387 301zM285 838q0 -65 45.5 -102t140.5 -58v309q-186 -12 -186 -149zM586 180q202 15 202 164q0 65 -49 100t-153 56v-320z" />
<glyph unicode="%" horiz-adv-x="1472" d="M59 698q0 123 82.5 198t216.5 75q131 0 212 -73t81 -191q0 -124 -84 -200.5t-219 -76.5q-131 0 -210 73.5t-79 194.5zM213 700q0 -63 36.5 -101t96.5 -38q66 0 109 39t43 102q0 60 -40.5 99t-103.5 39q-62 0 -101.5 -39.5t-39.5 -100.5zM303 0l701 948h170l-701 -948 h-170zM821 246q0 123 82 197.5t217 74.5q131 0 212 -73t81 -191q0 -124 -84 -199t-221 -75q-131 0 -209 72.5t-78 193.5zM977 248q0 -62 36.5 -100.5t96.5 -38.5q66 0 108 39.5t42 101.5q0 61 -40.5 99t-103.5 38q-62 0 -100.5 -38t-38.5 -101z" />
<glyph unicode="&#x26;" horiz-adv-x="1359" d="M49 311q0 243 305 351q-127 157 -127 272q0 153 112 240.5t298 87.5q160 0 262 -77t102 -204q0 -248 -368 -365q8 -10 41 -43l229 -235l6 -6q140 152 183 364h178q-53 -278 -248 -473q95 -80 174 -80q50 0 90 19l41 -156q-79 -26 -149 -26q-153 0 -297 126 q-191 -126 -396 -126q-212 0 -324 83.5t-112 247.5zM258 334q0 -92 61.5 -146.5t172.5 -54.5q137 0 274 82l-2 4l-250 266q-62 66 -70 74q-186 -79 -186 -225zM430 942q0 -96 100 -217q279 83 279 240q0 64 -48.5 106.5t-125.5 42.5q-94 0 -149.5 -45.5t-55.5 -126.5z" />
<glyph unicode="'" horiz-adv-x="389" d="M88 1241h211l-37 -453h-135z" />
<glyph unicode="(" horiz-adv-x="669" d="M72 553q0 376 145 577q144 197 350 197h47v-143h-30q-156 0 -250 -165t-94 -460q0 -291 94 -455.5t250 -164.5h30v-144h-47q-208 0 -352 191q-143 192 -143 567z" />
<glyph unicode=")" horiz-adv-x="669" d="M53 -61h33q157 0 250.5 163.5t93.5 458.5q0 294 -93.5 458.5t-250.5 164.5h-33v143h49q208 0 351 -192t143 -568q0 -382 -143 -577q-145 -195 -353 -195h-47v144z" />
<glyph unicode="*" horiz-adv-x="811" d="M59 1024l41 129l230 -66l6 240h135l8 -240l230 68l41 -129l-224 -82l136 -196l-111 -80l-145 188l-146 -188l-110 80l133 196z" />
<glyph unicode="+" d="M72 444v142h334v346h153v-346h338v-142h-338v-348h-153v348h-334z" />
<glyph unicode="," horiz-adv-x="473" d="M68 104q0 59 42 93t107 34q83 0 132.5 -58t49.5 -146q0 -119 -72 -197t-208 -104l-35 94q176 50 182 180q0 16 -6 37q-27 -41 -86 -41q-45 0 -75.5 30t-30.5 78z" />
<glyph unicode="-" horiz-adv-x="600" d="M76 418v174h446v-174h-446z" />
<glyph unicode="." horiz-adv-x="454" d="M84 123q0 61 40 100t103 39t102.5 -38.5t39.5 -100.5q0 -64 -39 -103q-29 -30 -74 -36t-84.5 8t-66 49.5t-21.5 81.5z" />
<glyph unicode="/" horiz-adv-x="761" d="M-16 -205l622 1532h146l-625 -1532h-143z" />
<glyph unicode="0" horiz-adv-x="1052" d="M61 465q0 223 127 362q126 138 347 138q209 0 333 -136q121 -136 121 -358q0 -227 -126 -359t-347 -132q-210 0 -332 131q-123 132 -123 354zM264 467q0 -152 68.5 -240t185.5 -88q124 0 196 87t72 239q0 153 -72.5 246.5t-189.5 93.5q-122 0 -191 -90t-69 -248z" />
<glyph unicode="1" horiz-adv-x="647" d="M27 799l303 149h159v-948h-196v745l-211 -90z" />
<glyph unicode="2" horiz-adv-x="991" d="M88 0v166l289 199q6 4 92 61q60 40 90 61q8 5 27.5 23.5t31.5 28.5q35 32 47.5 60.5t12.5 66.5q0 70 -51.5 104.5t-139.5 34.5q-206 0 -206 -176q0 -21 2 -27h-189q-2 10 -2 37q0 150 108.5 238t297.5 88q179 0 282 -73.5t103 -205.5q0 -67 -43 -151q-5 -11 -18.5 -26 t-34 -34t-21.5 -20q-13 -13 -49 -40t-55 -38q-6 -4 -63.5 -41.5t-66.5 -44.5l-178 -121h547v-170h-813z" />
<glyph unicode="3" horiz-adv-x="964" d="M51 47l187 6q9 -209 225 -209q97 0 161 57.5t64 157.5q0 201 -248 201q-46 0 -102 -6l-6 149q167 17 246 73t79 161q0 82 -53 126t-141 44q-103 0 -157 -50t-54 -134v-21h-184v31q0 149 109 240.5t292 91.5q178 0 283.5 -84t105.5 -224q0 -262 -278 -299v-6 q134 6 222.5 -74.5t88.5 -224.5q0 -167 -118.5 -267.5t-311.5 -100.5q-190 0 -300 91t-110 271z" />
<glyph unicode="4" horiz-adv-x="997" d="M29 49v152l518 747h250v-731h168v-168h-168v-342h-187v342h-581zM231 217h379v526h-12z" />
<glyph unicode="5" horiz-adv-x="964" d="M82 23l184 8q35 -189 219 -189q100 0 165 72.5t65 196.5q0 126 -59.5 192t-161.5 66q-146 0 -207 -123l-162 20v682h733v-174h-575v-346q85 98 247 98q177 0 282.5 -106.5t105.5 -298.5q0 -198 -123 -318q-121 -118 -314 -118q-167 0 -274.5 86.5t-124.5 251.5z" />
<glyph unicode="6" horiz-adv-x="1052" d="M90 580q0 322 125.5 502t357.5 180q182 0 279.5 -90.5t103.5 -258.5l-186 -8q-11 103 -59.5 155t-145.5 52q-134 0 -205 -118t-71 -330v-31q89 160 297 160q178 0 280.5 -105.5t102.5 -286.5q0 -194 -117.5 -306.5t-316.5 -112.5q-445 0 -445 598zM307 383 q0 -113 65 -180.5t167 -67.5q105 0 166 69t61 185q0 113 -59 179.5t-162 66.5q-107 0 -172.5 -68.5t-65.5 -183.5z" />
<glyph unicode="7" horiz-adv-x="866" d="M29 766v178h802v-156l-481 -1089h-200l483 1067h-604z" />
<glyph unicode="8" horiz-adv-x="1064" d="M78 336q0 132 69 214t187 103v9q-221 50 -221 278q0 143 115 232.5t304 89.5q188 0 303 -91t115 -235q0 -106 -58 -181t-161 -93v-9q113 -21 184.5 -101.5t71.5 -203.5q0 -174 -123 -268q-122 -98 -334 -98t-331 94q-121 95 -121 260zM283 352q0 -103 68.5 -163 t180.5 -60q113 0 180.5 59.5t67.5 163.5q0 99 -67 159t-181 60q-111 0 -180 -60.5t-69 -158.5zM315 932q0 -96 59.5 -151.5t157.5 -55.5q97 0 157.5 57t60.5 150q0 80 -61 134t-154 54q-94 0 -157 -53.5t-63 -134.5z" />
<glyph unicode="9" horiz-adv-x="1060" d="M86 557q0 182 119 295t315 113q218 0 334.5 -150t116.5 -453q0 -322 -125.5 -499.5t-358.5 -177.5q-188 0 -287.5 89.5t-105.5 256.5l191 10q21 -203 215 -203q128 0 197 114t69 314v49q-92 -157 -291 -157q-182 0 -285.5 107.5t-103.5 291.5zM287 563q0 -113 59 -179.5 t162 -66.5q109 0 174.5 68t65.5 180q0 106 -63 174t-163 68q-111 0 -173 -66t-62 -178z" />
<glyph unicode=":" horiz-adv-x="460" d="M86 123q0 61 40 100t103 39t102.5 -38.5t39.5 -100.5q0 -64 -39 -103q-29 -30 -74 -36t-84.5 8t-66 49.5t-21.5 81.5zM86 713q0 61 40 100t103 39t102.5 -38.5t39.5 -100.5q0 -64 -39 -103q-29 -30 -74 -36t-84.5 8t-66 49.5t-21.5 81.5z" />
<glyph unicode=";" horiz-adv-x="483" d="M72 104q0 59 42 93t107 34q83 0 132.5 -58t49.5 -146q0 -119 -72 -197t-208 -104l-35 94q176 50 182 180q0 16 -6 37q-27 -41 -86 -41q-45 0 -75.5 30t-30.5 78zM90 715q0 61 40 100t103 39t102.5 -38.5t39.5 -100.5q0 -64 -39 -103q-29 -30 -74 -36t-84.5 8t-66 49.5 t-21.5 81.5z" />
<glyph unicode="&#x3c;" d="M133 446v127l678 291v-162l-459 -182v-12l467 -172v-162z" />
<glyph unicode="=" d="M92 268v142h785v-142h-785zM92 596v141h785v-141h-785z" />
<glyph unicode="&#x3e;" d="M150 688v164l686 -272v-129l-678 -289v162l458 182v12z" />
<glyph unicode="?" horiz-adv-x="993" d="M61 995q0 151 120.5 229.5t332.5 78.5q194 0 308 -77.5t114 -203.5q0 -130 -125 -227q-48 -39 -164 -76q-5 -2 -20 -7t-32 -11t-34 -11q-8 -3 -25 -8.5t-22.5 -7.5t-18.5 -6.5t-17.5 -6.5t-14.5 -6t-14 -6.5t-11.5 -6t-12 -7t-10.5 -8t-12 -9.5q-28 -25 -28 -55 q0 -69 104 -69q68 0 152 41l45 -121q-77 -62 -217 -62q-277 0 -277 201q0 103 73 158.5t255 115.5q102 35 152 64q67 41 67 121q0 66 -57 101.5t-160 35.5q-258 0 -258 -168q0 -1 6 -51l-190 -17q-9 30 -9 82zM295 115q0 60 39.5 96.5t105.5 36.5q63 0 102.5 -36.5 t39.5 -96.5q0 -63 -37 -97q-38 -37 -103.5 -37t-105.5 37q-41 35 -41 97z" />
<glyph unicode="@" horiz-adv-x="1830" d="M100 389q0 155 54.5 294t156.5 247q103 109 265.5 171t359.5 62q380 0 584 -192q206 -194 206 -486q0 -234 -103.5 -366.5t-293.5 -132.5q-94 0 -153.5 45t-59.5 123v18q-67 -186 -311 -186q-116 0 -189 57.5t-73 159.5q0 258 370 258h162v65q0 74 -45 114t-125 40 q-166 0 -184 -139l-160 14q13 126 106 195t244 69q338 0 338 -291v-299q0 -56 26 -88t73 -32q29 0 57 9t59.5 34.5t55.5 65t39.5 107t15.5 154.5q0 248 -166 404q-169 153 -475 153q-328 0 -504 -182q-176 -185 -176 -463q0 -99 18 -185t62.5 -166.5t113 -137.5t175.5 -92 t243 -37q86 0 183 20l10 -131q-79 -18 -189 -18q-168 2 -300 41t-219 106t-144.5 162t-82 202.5t-24.5 233.5zM723 225q0 -102 123 -102q98 0 164.5 60t66.5 165h-141q-213 0 -213 -123z" />
<glyph unicode="A" horiz-adv-x="1216" d="M14 0l459 1241h275l452 -1241h-219l-119 338h-518l-119 -338h-211zM406 512h397l-189 537h-20z" />
<glyph unicode="B" horiz-adv-x="1179" d="M135 0v1241h516q416 0 416 -299q0 -117 -70.5 -192.5t-203.5 -92.5v-6q142 -1 226.5 -80.5t84.5 -210.5q0 -167 -111.5 -263.5t-312.5 -96.5h-545zM336 168h291q126 0 193 53.5t67 147.5q0 86 -63.5 137t-172.5 51h-315v-389zM336 723h256q127 0 195.5 50t68.5 136 q0 76 -57 120t-160 44h-303v-350z" />
<glyph unicode="C" horiz-adv-x="1292" d="M63 610q0 305 166 480q166 172 441 172q234 0 387 -123q153 -126 153 -363l-196 -10q-27 326 -355 326q-183 0 -286 -125.5t-103 -345.5q0 -227 105 -349t293 -122q137 0 228 75.5t114 210.5l200 -12q-23 -210 -168.5 -327t-379.5 -117q-282 0 -440.5 167.5t-158.5 462.5 z" />
<glyph unicode="D" horiz-adv-x="1294" d="M137 0v1241h486q280 0 440 -152t160 -438q0 -292 -179 -471q-180 -180 -485 -180h-422zM336 178h223q210 0 333.5 125t123.5 336q0 200 -110.5 312t-303.5 112h-266v-885z" />
<glyph unicode="E" horiz-adv-x="1081" d="M137 0v1241h869v-176h-670v-352h559v-174h-559v-365h674v-174h-873z" />
<glyph unicode="F" horiz-adv-x="1044" d="M137 0v1241h848v-176h-649v-375h559v-176h-559v-514h-199z" />
<glyph unicode="G" horiz-adv-x="1404" d="M70 604q0 309 168 483q166 175 456 175q152 0 264.5 -40.5t194.5 -138.5q87 -104 96 -258l-202 -18q-17 141 -111 214t-250 73q-189 0 -299.5 -129.5t-110.5 -352.5q0 -221 107 -341.5t299 -120.5q122 0 214.5 58t135.5 157q25 49 33 104h-367v164h570v-633h-176l-13 227 q-125 -247 -424 -247q-270 0 -426 163q-159 163 -159 461z" />
<glyph unicode="H" horiz-adv-x="1325" d="M137 0v1241h199v-528h653v528h199v-1241h-199v530h-653v-530h-199z" />
<glyph unicode="I" horiz-adv-x="475" d="M137 0v1241h199v-1241h-199z" />
<glyph unicode="J" horiz-adv-x="1038" d="M70 324v94h190v-72q0 -93 60 -144.5t176 -51.5q101 0 163 58t62 165v692h-381v176h580v-850q0 -95 -25.5 -168.5t-67 -118.5t-99.5 -73.5t-116.5 -39.5t-124.5 -11q-189 0 -303 91t-114 253z" />
<glyph unicode="K" horiz-adv-x="1193" d="M137 0v1241h199v-651h12l580 651h237l-497 -561l530 -680h-260l-410 539l-192 -222v-317h-199z" />
<glyph unicode="L" horiz-adv-x="960" d="M137 0v1241h199v-1061h584v-180h-783z" />
<glyph unicode="M" horiz-adv-x="1689" d="M137 0v1241h334l373 -1042h14l369 1042h325v-1241h-192v1042h-19l-372 -1042h-244l-375 1036h-20v-1036h-193z" />
<glyph unicode="N" horiz-adv-x="1298" d="M135 0v1241h266l449 -735q74 -124 119 -221h10v956h182v-1241h-229l-604 1010h-11v-1010h-182z" />
<glyph unicode="O" horiz-adv-x="1392" d="M72 625q0 293 172 465t465 172q279 0 446 -170q166 -172 166 -463q0 -298 -172 -473q-173 -176 -465 -176q-286 0 -448 174q-164 173 -164 471zM279 623q0 -222 110 -347q111 -129 297 -129q198 0 313 129.5t115 350.5q0 217 -109 342t-298 125q-201 0 -314 -125 q-114 -126 -114 -346z" />
<glyph unicode="P" horiz-adv-x="1099" d="M137 0v1241h496q200 0 312 -89.5t112 -264.5q0 -191 -118 -295.5t-327 -104.5h-276v-487h-199zM336 662h264q120 0 185 57.5t65 157.5q0 89 -57 139.5t-164 50.5h-293v-405z" />
<glyph unicode="Q" horiz-adv-x="1390" d="M72 625q0 293 172 465q169 172 465 172q286 0 448 -168t162 -463q0 -233 -107.5 -393t-304.5 -220l45 -51q50 -59 115 -59q52 0 88 39l86 -146q-65 -71 -182 -71q-83 0 -148.5 34t-134.5 121l-82 103h-10q-290 0 -451 168t-161 469zM274 625q0 -217 113 -342 q112 -127 301 -127q198 0 312 126.5t114 346.5q0 215 -109 340t-298 125q-203 0 -316 -125q-117 -126 -117 -344z" />
<glyph unicode="R" horiz-adv-x="1249" d="M137 0v1241h580q192 0 301.5 -85.5t109.5 -242.5q0 -142 -76 -222t-218 -91v-6q100 -12 147 -59.5t57 -151.5l15 -133q9 -98 82 -98h24l4 -158q-42 -10 -92 -10q-198 0 -219 217l-14 147q-7 86 -53.5 122t-139.5 36h-309v-506h-199zM336 680h313q131 0 201 55.5t70 149.5 q0 188 -238 188h-346v-393z" />
<glyph unicode="S" horiz-adv-x="1126" d="M61 367l209 8q17 -122 93 -176t215 -54q120 0 193 50t73 145q0 101 -92 149q-32 16 -65 27.5t-57.5 17.5t-86.5 21q-23 5 -47 10t-27 6q-5 1 -68 19q-57 13 -71 20q-97 36 -121 60q-2 2 -20.5 18.5t-27 24.5t-20.5 23.5t-18 29.5q-31 76 -31 147q3 175 131 263 q130 86 324 86q235 0 359 -98t124 -283l-196 -17q-12 129 -79.5 182.5t-209.5 53.5q-117 0 -182.5 -44t-65.5 -122q0 -84 64 -126t227 -81q230 -53 307 -98q158 -90 158 -275q0 -83 -29 -149.5t-75.5 -107.5t-109.5 -68t-125.5 -38t-129.5 -11q-520 0 -523 387z" />
<glyph unicode="T" horiz-adv-x="1095" d="M20 1061v180h1055v-180h-428v-1061h-198v1061h-429z" />
<glyph unicode="U" horiz-adv-x="1259" d="M123 473v768h196v-741q0 -171 83 -258.5t239 -87.5q141 0 219 86.5t78 246.5v754h199v-766q0 -237 -132.5 -366t-369.5 -129q-247 0 -379.5 127t-132.5 366z" />
<glyph unicode="V" horiz-adv-x="1169" d="M4 1241h217l357 -1044h20l354 1044h211l-440 -1241h-281z" />
<glyph unicode="W" horiz-adv-x="1955" d="M18 1241h211l320 -1051h16l293 1051h258l287 -1051h16l312 1051h206l-383 -1241h-292l-265 1014h-20l-275 -1014h-292z" />
<glyph unicode="X" horiz-adv-x="1185" d="M6 0l461 635l-430 606h248l301 -448h18l314 448h231l-432 -594l463 -647h-244l-340 483h-16l-344 -483h-230z" />
<glyph unicode="Y" horiz-adv-x="1157" d="M8 1241h221l340 -596h15l346 596h219l-481 -803v-438h-199v438z" />
<glyph unicode="Z" horiz-adv-x="1085" d="M59 0v168l719 899q-70 -4 -160 -4h-530v178h934v-168l-604 -760q-67 -82 -125 -137h731v-176h-965z" />
<glyph unicode="[" horiz-adv-x="583" d="M115 -205v1532h405v-143h-246v-1245h246v-144h-405z" />
<glyph unicode="\" horiz-adv-x="768" d="M10 1327h146l624 -1532h-145z" />
<glyph unicode="]" horiz-adv-x="577" d="M72 -61h245v1245h-245v143h405v-1532h-405v144z" />
<glyph unicode="^" horiz-adv-x="841" d="M78 813l258 428h158l268 -422l-133 -41l-207 303h-16l-193 -303z" />
<glyph unicode="_" horiz-adv-x="643" d="M25 -20h591v-150h-591v150z" />
<glyph unicode="`" horiz-adv-x="819" d="M147 1300l121 132l334 -334l-88 -82z" />
<glyph unicode="a" horiz-adv-x="991" d="M70 229q0 283 399 283h197v74q0 81 -49 123.5t-138 42.5q-182 0 -203 -156l-180 12q19 145 121.5 223t269.5 78q371 0 371 -317v-369q0 -78 49 -78q23 0 35 9l25 -144q-53 -30 -115 -30q-78 0 -123 41.5t-45 128.5q-89 -170 -303 -170q-139 0 -225 64.5t-86 184.5z M272 254q0 -60 42 -92q40 -31 104 -31h8q105 2 173.5 67.5t68.5 188.5h-174q-222 0 -222 -133z" />
<glyph unicode="b" horiz-adv-x="1083" d="M137 0v1307h195v-383q0 -105 -8 -170q98 155 299 155q186 0 292.5 -118.5t106.5 -333.5q0 -227 -117 -353q-115 -124 -309 -124q-193 0 -279 145l-16 -125h-164zM322 430q0 -136 66 -213.5t179 -77.5q117 0 183.5 80t66.5 225q0 144 -65 222.5t-177 78.5 q-122 0 -187.5 -88.5t-65.5 -226.5z" />
<glyph unicode="c" horiz-adv-x="966" d="M59 446q0 202 123 334q123 129 320 129q194 0 299 -94.5t110 -257.5l-188 -4q-21 197 -217 197q-116 0 -180 -82.5t-64 -223.5q0 -142 64.5 -222.5t177.5 -80.5q176 0 213 168l190 -14q-55 -315 -415 -315q-202 0 -317.5 126.5t-115.5 339.5z" />
<glyph unicode="d" horiz-adv-x="1095" d="M61 434q0 218 114 346.5t302 128.5q197 0 285 -125v523h196v-1307h-176q-2 43 -16 143q-94 -163 -305 -163q-187 0 -293.5 118.5t-106.5 335.5zM268 444q0 -146 68 -223q66 -78 174 -78q123 0 187.5 88t64.5 228q0 139 -65 214t-181 75q-114 0 -180 -78q-68 -80 -68 -226 z" />
<glyph unicode="e" horiz-adv-x="995" d="M59 438q0 211 125 342q126 129 332 129q198 0 308 -111t110 -313q0 -3 -4 -73l-670 -2q15 -271 254 -271q178 0 219 150l185 -19q-64 -290 -418 -290q-210 0 -325.5 119.5t-115.5 338.5zM268 543h465q-4 102 -61.5 157.5t-157.5 55.5q-202 0 -246 -213z" />
<glyph unicode="f" horiz-adv-x="608" d="M31 723v168h108q31 0 31 29v67q0 167 81 248.5t226 81.5q108 0 176 -47l-59 -148q-40 27 -98 27q-69 0 -100 -41.5t-31 -132.5v-84h208v-168h-208v-723h-195v723h-139z" />
<glyph unicode="g" horiz-adv-x="1015" d="M43 -182q0 163 205 209q-123 41 -123 153q0 126 151 164q-86 29 -135 98.5t-49 157.5q0 142 111.5 225.5t296.5 83.5q44 0 169.5 -9t182.5 -9h154v-146q-14 -1 -29 -1q-72 0 -170 12q84 -53 84 -168q0 -137 -108.5 -214t-290.5 -77h-58q-129 0 -129 -74q6 -42 41 -55 q31 -10 93 -10h20h153q381 0 381 -256q0 -149 -141 -233.5t-387 -84.5q-194 0 -308 60.5t-114 173.5zM240 -145q0 -61 65 -95t178 -34q144 0 226 39t82 110q0 117 -205 117h-137q-102 0 -155.5 -37t-53.5 -100zM291 606q0 -78 54.5 -124t148.5 -46t148 46t54 126 q0 75 -53.5 121.5t-148.5 46.5t-149 -47t-54 -123z" />
<glyph unicode="h" horiz-adv-x="1046" d="M137 0v1307h197v-400q0 -68 -8 -159q84 161 278 161q324 0 324 -358v-551h-195v494q0 241 -184 241q-153 0 -217 -174v-561h-195z" />
<glyph unicode="i" horiz-adv-x="471" d="M104 1182q0 56 35.5 89.5t96.5 33.5t96 -33.5t35 -89.5q0 -57 -35 -92t-96.5 -35t-96.5 35t-35 92zM137 0v891h195v-891h-195z" />
<glyph unicode="j" horiz-adv-x="475" d="M-66 -360l46 163q41 -18 73 -18q90 0 90 117v989h195v-981q0 -299 -264 -299q-61 0 -140 29zM113 1182q0 56 35 89.5t96 33.5t96 -33.5t35 -89.5q0 -57 -35 -92t-96.5 -35t-96.5 35q-34 34 -34 92z" />
<glyph unicode="k" d="M137 0v1307h195v-826h6l395 410h225l-354 -377l195 -270q37 -50 61.5 -67t59.5 -17q20 0 26 2l15 -168q-35 -14 -84 -14q-75 0 -125.5 32.5t-116.5 128.5l-172 238l-131 -141v-238h-195z" />
<glyph unicode="l" horiz-adv-x="471" d="M137 0v1307h195v-1307h-195z" />
<glyph unicode="m" horiz-adv-x="1619" d="M137 0v891h185v-88q0 -9 -2 -34t-3 -36q89 176 287 176q211 0 275 -174q101 174 303 174q319 0 319 -364v-545h-194v500q0 233 -183 233q-141 0 -206 -170v-563h-195v500q0 233 -184 233q-137 0 -207 -172v-561h-195z" />
<glyph unicode="n" horiz-adv-x="1048" d="M137 0v891h182v-88q0 -10 -4 -76q89 182 289 182q324 0 324 -362v-547h-195v492q0 243 -184 243q-150 0 -217 -178v-557h-195z" />
<glyph unicode="o" horiz-adv-x="1032" d="M59 436q0 217 126 345t347 128q206 0 323.5 -125.5t117.5 -337.5q0 -215 -124.5 -340.5t-344.5 -125.5q-210 0 -327.5 121t-117.5 335zM264 440q0 -137 67.5 -219t182.5 -82q117 0 185.5 82t68.5 219q0 141 -66.5 224.5t-179.5 83.5q-119 0 -188.5 -83t-69.5 -225z" />
<glyph unicode="p" horiz-adv-x="1089" d="M135 -395v1286h184v-82l-6 -80q94 180 312 180q187 0 295 -118.5t108 -335.5q0 -219 -118 -347t-312 -128q-186 0 -268 129v-504h-195zM326 428q0 -136 65 -212.5t178 -76.5q118 0 185 79.5t67 225.5q0 144 -64.5 221.5t-176.5 77.5q-123 0 -188.5 -87.5t-65.5 -227.5z " />
<glyph unicode="q" horiz-adv-x="1087" d="M61 432q0 220 119 348q120 129 309 129q203 0 295 -129l25 111h147v-1286h-196v518q-101 -143 -299 -143q-187 0 -293.5 117.5t-106.5 334.5zM266 442q0 -145 65 -223t177 -78q122 0 188 89t66 227q0 136 -65 211t-181 75q-118 0 -184 -78t-66 -223z" />
<glyph unicode="r" horiz-adv-x="657" d="M135 0v891h182v-88q0 -70 -8 -117q49 117 111.5 169t150.5 52q43 0 74 -8l-24 -203q-30 9 -68 9q-153 0 -223 -166v-539h-195z" />
<glyph unicode="s" horiz-adv-x="901" d="M63 272l193 7q24 -148 203 -148q77 0 123.5 29.5t46.5 85.5q0 53 -40.5 79t-150.5 54q-186 44 -239 76q-112 69 -115 200q0 112 99 183t261 71q178 0 276.5 -74.5t100.5 -211.5l-190 -13q-3 150 -185 150q-76 0 -118.5 -29.5t-42.5 -75.5q6 -43 19.5 -62.5t53.5 -35.5 q35 -14 115 -33q3 -1 8.5 -2t7.5 -2q47 -12 101 -24l20 -7.5t31.5 -11.5t34.5 -12q56 -23 82 -49q69 -69 69 -170q0 -126 -99 -196t-263 -70q-192 0 -296.5 72t-105.5 220z" />
<glyph unicode="t" horiz-adv-x="698" d="M25 723v168h112q28 0 31 27l22 266h172v-293h275v-168h-275v-416q0 -147 115 -147q69 0 115 43l65 -144q-77 -77 -223 -77q-266 0 -266 294v447h-143z" />
<glyph unicode="u" horiz-adv-x="1034" d="M117 350v541h194v-488q0 -251 181 -251q141 0 208 174v565h195v-891h-182v86q1 11 5 46.5t5 47.5q-82 -198 -287 -198q-319 0 -319 368z" />
<glyph unicode="v" horiz-adv-x="923" d="M20 891h213l222 -698h20l223 698h209l-309 -891h-268z" />
<glyph unicode="w" horiz-adv-x="1523" d="M23 891h210l191 -701h18l211 701h232l198 -701h19l192 701h207l-266 -891h-270l-191 676h-16l-201 -676h-270z" />
<glyph unicode="x" horiz-adv-x="940" d="M14 0l334 444l-313 447h235l201 -307h14l205 307h225l-317 -432l328 -459h-238l-209 313h-18l-221 -313h-226z" />
<glyph unicode="y" horiz-adv-x="944" d="M14 891h213l246 -694h16l232 694h207l-305 -850v-182q0 -133 -68 -199t-180 -66q-121 0 -187 54l48 153q45 -39 108 -39q89 0 98 76q3 22 3 91q0 41 -1 100h-112z" />
<glyph unicode="z" horiz-adv-x="872" d="M59 0v160l510 571q-58 -4 -135 -4h-356v164h727v-162l-402 -448q-84 -89 -116 -119h528v-162h-756z" />
<glyph unicode="{" horiz-adv-x="706" d="M14 477v170h54q75 0 121.5 46t46.5 124v240q0 143 76.5 206.5t234.5 63.5h92v-141h-74q-90 0 -128 -41.5t-38 -136.5v-213q0 -194 -180 -228v-6q180 -27 180 -227v-219q0 -97 37 -137.5t129 -40.5h74v-142h-88q-159 0 -237 65t-78 210v237q0 78 -46.5 124t-121.5 46h-54z " />
<glyph unicode="|" horiz-adv-x="505" d="M182 -205v1532h142v-1532h-142z" />
<glyph unicode="}" horiz-adv-x="706" d="M66 -63h73q90 0 129 41.5t39 134.5v217q0 195 178 229v6q-178 24 -178 226v215q0 98 -37.5 139t-128.5 41h-75v141h88q159 0 237 -65.5t78 -210.5v-234q0 -78 47.5 -124t122.5 -46h53v-170h-53q-76 0 -123 -46t-47 -124v-241q0 -143 -77 -207t-234 -64h-92v142z" />
<glyph unicode="~" d="M90 387q18 225 221 225q86 0 181 -59q94 -61 155 -61q95 0 107 112l123 -26q-7 -110 -65.5 -168t-152.5 -58q-86 0 -180 60q-95 59 -160 59q-94 0 -106 -109z" />
<glyph unicode="&#xa1;" horiz-adv-x="598" d="M156 854q0 62 39 98q38 35 104 35t104 -35q39 -36 39 -98q0 -60 -38.5 -96.5t-104.5 -36.5t-104.5 36.5t-38.5 96.5zM201 217q0 126 35 397h122q37 -286 37 -393v-530h-194v526z" />
<glyph unicode="&#xa2;" horiz-adv-x="1024" d="M68 494q0 207 102.5 333.5t278.5 147.5v211h129v-209q169 -13 263.5 -104t102.5 -234l-176 -23q-21 182 -195 209v-653q167 21 205 180l164 -28q-53 -277 -364 -304v-188h-129v191q-186 18 -283.5 141.5t-97.5 329.5zM258 500q0 -131 52 -214t145 -108v645 q-95 -20 -146 -105.5t-51 -217.5z" />
<glyph unicode="&#xa3;" horiz-adv-x="1048" d="M49 0v154h29q104 0 154.5 62.5t50.5 168.5q0 34 -7 74h-202v129h159q0 1 -6 13.5t-12.5 26t-7.5 15.5t-6.5 14t-10.5 25t-6 18l-9 36t-10 49t-3 44q0 136 114 226t314 90q158 0 274 -72q111 -73 111 -203q0 -44 -17 -114l-178 6q4 50 4 67q0 164 -200 164 q-105 0 -163.5 -46.5t-58.5 -133.5q0 -79 64 -225h326v-129h-281q8 -24 8 -62q0 -160 -149 -233h655v-164h-936z" />
<glyph unicode="&#xa4;" horiz-adv-x="978" d="M74 209l104 104q-63 89 -63 211q0 111 59 203l-100 102l104 101l103 -103q91 60 211 60q115 0 206 -58l101 101l104 -101l-100 -100q61 -88 61 -205q0 -124 -63 -213l102 -102l-104 -103l-105 105q-86 -57 -202 -57q-120 0 -209 57l-105 -105zM264 522q0 -99 65 -166 t163 -67q95 0 159 67t64 166q0 100 -64 164t-159 64q-98 0 -163 -65t-65 -163z" />
<glyph unicode="&#xa5;" horiz-adv-x="1171" d="M18 1137h224l333 -508h15l344 508h219l-383 -545h238v-127h-328l-6 -8v-117h334v-125h-334v-215h-199v215h-336v125h336v117l-6 8h-330v127h246z" />
<glyph unicode="&#xa6;" horiz-adv-x="505" d="M182 -205v606h142v-606h-142zM182 721v606h142v-606h-142z" />
<glyph unicode="&#xa7;" horiz-adv-x="1064" d="M84 487q0 231 317 258q-160 25 -226 86t-66 160q0 119 110 195t305 76q127 0 219.5 -32t148 -105t56.5 -181l-188 -4q-12 96 -70 135t-168 39q-96 0 -153.5 -34.5t-57.5 -96.5q0 -58 58 -98q53 -41 235 -82q200 -44 287.5 -108.5t87.5 -180.5q0 -242 -322 -260 q168 -25 233.5 -85t65.5 -161q0 -119 -111.5 -195.5t-297.5 -76.5t-305 76q-122 76 -125 243l190 6q15 -178 242 -178q93 0 149 34t56 93q0 63 -58 109q-60 45 -237 74q-193 36 -284 105t-91 189zM276 514q0 -89 97 -131q93 -43 217 -43q85 0 141.5 42t56.5 103 q0 83 -94 129q-91 45 -215 45q-92 0 -147.5 -38.5t-55.5 -106.5z" />
<glyph unicode="&#xa8;" horiz-adv-x="819" d="M113 1173.5q0 50.5 32 81.5q31 31 84.5 31t85.5 -31t32 -81.5t-32 -81.5q-32 -32 -85.5 -32t-84.5 32q-32 31 -32 81.5zM471 1174q0 51 33.5 81.5t87.5 30.5q51 0 83 -30.5t32 -81.5t-32 -83t-83 -32q-54 0 -87.5 32t-33.5 83z" />
<glyph unicode="&#xa9;" horiz-adv-x="1425" d="M61 625q0 271 189 454t463 183q276 0 465 -183q186 -180 186 -454q0 -278 -186 -461q-187 -184 -465 -184q-276 0 -463 184q-189 186 -189 461zM193 625q0 -232 149 -381q151 -154 371 -154q221 0 372 154q148 151 148 381q0 223 -148 374q-150 150 -372 150 q-221 0 -371 -150q-149 -149 -149 -374zM354 621q0 178 99 281.5t260 103.5q149 0 234.5 -74.5t90.5 -208.5l-147 -14q-12 174 -180 174q-90 0 -143.5 -70.5t-53.5 -187.5q0 -116 55.5 -184t143.5 -68q150 0 184 137l139 -23q-55 -243 -331 -243q-165 0 -258 101.5 t-93 275.5z" />
<glyph unicode="&#xaa;" horiz-adv-x="751" d="M76 815q0 191 266 191h129v41q0 49 -32 74.5t-89 25.5q-116 0 -125 -92l-133 10q12 94 81.5 145.5t184.5 51.5q256 0 256 -211v-236q0 -43 29 -43q17 0 21 2l12 -104q-30 -15 -68 -15q-106 0 -106 111v14q-58 -125 -228 -125q-87 0 -142.5 43.5t-55.5 116.5zM80 434v109 h588v-109h-588zM229 838q0 -68 82 -68q69 0 115.5 38t46.5 105h-113q-131 0 -131 -75z" />
<glyph unicode="&#xab;" horiz-adv-x="892" d="M82 420v127l326 282l47 -131l-201 -202v-19l201 -207l-54 -131zM440 420v127l326 282l47 -131l-201 -202v-19l201 -207l-53 -131z" />
<glyph unicode="&#xac;" d="M72 442v142h790v-375h-151v233h-639z" />
<glyph unicode="&#xad;" horiz-adv-x="600" d="M76 418v174h446v-174h-446z" />
<glyph unicode="&#xae;" horiz-adv-x="1425" d="M61 625q0 271 189 454t463 183q276 0 465 -183q186 -180 186 -454q0 -278 -186 -461q-187 -184 -465 -184q-276 0 -463 184q-189 186 -189 461zM193 625q0 -232 149 -381q151 -154 371 -154q221 0 372 154q148 151 148 381q0 223 -148 374q-150 150 -372 150 q-221 0 -371 -150q-149 -149 -149 -374zM428 260v731h315q123 0 192 -49.5t69 -142.5q0 -88 -52 -137t-149 -54v-2q77 -7 109.5 -40.5t43.5 -112.5q5 -55 12.5 -70.5t30.5 -15.5h9l2 -107q-30 -10 -68 -10q-57 0 -88 36t-41 122q-11 87 -31.5 115t-76.5 28h-140v-291h-137z M565 672h137q148 0 148 108q0 97 -135 97h-150v-205z" />
<glyph unicode="&#xaf;" horiz-adv-x="819" d="M139 1065v139h539v-139h-539z" />
<glyph unicode="&#xb0;" horiz-adv-x="712" d="M66 993q0 121 81 195t215 74q127 0 205 -72t78 -189q0 -121 -83.5 -195.5t-217.5 -74.5q-125 0 -201.5 72t-76.5 190zM211 995.5q0 -64.5 37 -100.5q33 -39 94 -39q69 0 113.5 39t44.5 102t-39.5 101.5t-102.5 38.5q-67 0 -106 -39q-41 -38 -41 -102.5z" />
<glyph unicode="&#xb1;" d="M72 -33v142h825v-142h-825zM72 496v141h334v295h153v-295h338v-141h-338v-297h-153v297h-334z" />
<glyph unicode="&#xb2;" horiz-adv-x="692" d="M57 586v135l187 125q10 7 32.5 22.5t29.5 20t23 16t21.5 16l16.5 13.5t17 15t14 14.5t16 17.5q30 37 30 70q0 90 -108 90q-56 0 -89.5 -33t-33.5 -92h-145q0 246 280 246q120 0 192 -50.5t72 -140.5q0 -45 -18.5 -82t-61.5 -76q-57 -50 -79 -65q-2 -1 -115 -76l-84 -55 h377v-131h-574z" />
<glyph unicode="&#xb3;" horiz-adv-x="698" d="M49 768h150q3 -82 129 -82q59 0 97 25.5t38 68.5q0 84 -141 84q-8 0 -74 -4l-2 111q110 14 156.5 37t46.5 65q0 72 -111 72q-121 0 -121 -96h-149q0 100 73 156.5t203 56.5q123 0 196.5 -45t73.5 -119q0 -71 -47 -108.5t-153 -55.5v-4q94 5 155.5 -38t61.5 -122 q0 -96 -83 -150.5t-224 -54.5q-128 0 -201.5 51t-73.5 152z" />
<glyph unicode="&#xb4;" horiz-adv-x="819" d="M242 1096l336 336l118 -129l-370 -287z" />
<glyph unicode="&#xb5;" horiz-adv-x="1054" d="M137 -395v1286h195v-485q0 -254 178 -254q147 0 211 174v565h194v-891h-176v82l13 106q-80 -206 -279 -206q-88 0 -151 38q6 -135 6 -415h-191z" />
<glyph unicode="&#xb6;" horiz-adv-x="1226" d="M55 838q0 191 136.5 297t379.5 106h603v-151h-461v-1418h-162v758q-496 0 -496 408zM852 -328v1311h164v-1311h-164z" />
<glyph unicode="&#xb7;" horiz-adv-x="516" d="M113 500q0 61 40 100t103 39t102 -38.5t39 -100.5q0 -64 -39 -103q-29 -30 -74 -36t-84 8t-65.5 49.5t-21.5 81.5z" />
<glyph unicode="&#xb8;" horiz-adv-x="819" d="M236 -313l65 75q32 -38 84 -38q30 0 47 15.5t17 39.5q0 35 -27 47t-88 12h-53l61 182h109l-39 -104q202 6 202 -137q0 -71 -56.5 -114.5t-158.5 -43.5q-109 0 -163 66z" />
<glyph unicode="&#xb9;" horiz-adv-x="530" d="M29 1118l223 123h135v-653h-160v481l-147 -63z" />
<glyph unicode="&#xba;" horiz-adv-x="747" d="M76 958q0 138 82 221t223 83q135 0 213 -80t78 -217q0 -144 -80 -227t-225 -83q-136 0 -213.5 81t-77.5 222zM84 434v109h578v-109h-578zM229 961q0 -86 39.5 -137.5t102.5 -51.5q69 0 108 50.5t39 140.5q0 88 -37.5 137t-103.5 49q-68 0 -108 -50.5t-40 -137.5z" />
<glyph unicode="&#xbb;" horiz-adv-x="894" d="M78 270l201 201v21l-201 204l55 133l320 -282v-125l-326 -283zM436 270l201 201v21l-201 204l56 133l319 -282v-125l-326 -283z" />
<glyph unicode="&#xbc;" horiz-adv-x="1445" d="M27 1118l223 123h135v-653h-160v481l-147 -63zM178 0l926 1239h158l-926 -1239h-158zM805 145v125l323 381h183v-383h92v-123h-92v-145h-146v145h-360zM961 268h204v236h-8z" />
<glyph unicode="&#xbd;" horiz-adv-x="1519" d="M27 1118l223 123h135v-653h-160v481l-147 -63zM178 0l926 1239h158l-926 -1239h-158zM911 0v135l187 125q10 7 32.5 22.5t29.5 20t23 16t21.5 16l16.5 13.5t17 15t14 14.5t16 17.5q30 37 30 70q0 90 -108 90q-56 0 -89.5 -33t-33.5 -92h-145q0 246 280 246 q120 0 192 -50.5t72 -140.5q0 -45 -18 -81.5t-62 -75.5q-63 -55 -79 -66q-2 -1 -115 -76l-84 -55h377v-131h-574z" />
<glyph unicode="&#xbe;" horiz-adv-x="1540" d="M35 768h149q3 -82 129 -82q59 0 97.5 25.5t38.5 68.5q0 84 -142 84q-8 0 -74 -4l-2 111q110 14 156.5 37t46.5 65q0 72 -110 72q-121 0 -121 -96h-150q0 100 73.5 156.5t203.5 56.5q123 0 196.5 -45t73.5 -119q0 -71 -47.5 -108.5t-153.5 -55.5v-4q94 5 155.5 -38 t61.5 -122q0 -96 -83 -150.5t-224 -54.5q-127 0 -200.5 51t-73.5 152zM272 0l926 1239h158l-926 -1239h-158zM899 145v125l324 381h184v-383h90v-123h-90v-145h-147v145h-361zM1055 268h205v236h-9z" />
<glyph unicode="&#xbf;" horiz-adv-x="985" d="M53 -53q0 130 125 227q51 41 166 78q45 15 84 27q11 4 34.5 12t30 10t22.5 8t21.5 9t16 8.5t18 11t15.5 12.5q28 25 28 56q0 69 -104 69q-68 0 -152 -41l-45 121q76 61 217 61q277 0 277 -200q0 -103 -73.5 -159t-254.5 -116q-10 -3 -31 -10t-28 -9.5t-22.5 -8.5t-24 -10 t-20 -10t-23.5 -13q-70 -41 -70 -123q0 -66 57 -101.5t160 -35.5q258 0 258 168q0 2 -6 51l191 16q8 -27 8 -82q0 -151 -120.5 -229t-332.5 -78q-194 0 -308 77.5t-114 203.5zM408 854q0 63 38 98q37 35 103 35t106 -35q39 -36 39 -98q0 -60 -39.5 -96.5t-105.5 -36.5 q-63 0 -102 36.5t-39 96.5z" />
<glyph unicode="&#xc0;" horiz-adv-x="1216" d="M14 0l459 1241h275l452 -1241h-219l-119 338h-518l-119 -338h-211zM346 1606l121 131l334 -334l-88 -82zM406 512h397l-189 537h-20z" />
<glyph unicode="&#xc1;" horiz-adv-x="1216" d="M14 0l459 1241h275l452 -1241h-219l-119 338h-518l-119 -338h-211zM406 512h397l-189 537h-20zM440 1401l336 336l119 -129l-371 -287z" />
<glyph unicode="&#xc2;" horiz-adv-x="1216" d="M14 0l459 1241h275l452 -1241h-219l-119 338h-518l-119 -338h-211zM307 1362l219 317h168l213 -309l-123 -43l-168 213h-16l-166 -215zM406 512h397l-189 537h-20z" />
<glyph unicode="&#xc3;" horiz-adv-x="1216" d="M14 0l459 1241h275l452 -1241h-219l-119 338h-518l-119 -338h-211zM279 1364q0 115 48 175t136 60q77 0 151 -51q77 -53 113 -53q76 0 76 98h133q0 -114 -52 -173.5t-147 -59.5q-71 0 -145 51t-111 51q-71 0 -71 -98h-131zM406 512h397l-189 537h-20z" />
<glyph unicode="&#xc4;" horiz-adv-x="1216" d="M14 0l459 1241h275l452 -1241h-219l-119 338h-518l-119 -338h-211zM312 1479q0 51 32 82q31 31 84.5 31t85.5 -31t32 -82t-32 -82q-32 -32 -85.5 -32t-84.5 32q-32 31 -32 82zM406 512h397l-189 537h-20zM670 1479q0 51 33.5 81.5t87.5 30.5q51 0 82.5 -30.5t31.5 -81.5 t-31.5 -83t-82.5 -32q-54 0 -87.5 32t-33.5 83z" />
<glyph unicode="&#xc5;" horiz-adv-x="1216" d="M14 0l459 1241h275l452 -1241h-219l-119 338h-518l-119 -338h-211zM375 1536q0 97 66 155t175 58q103 0 166.5 -57t63.5 -148q0 -99 -65 -159t-171 -60q-104 0 -169.5 58.5t-65.5 152.5zM406 512h397l-189 537h-20zM503 1560.5q-5 -33.5 6 -63t38 -49.5t61 -16 q51 0 81 29t30 79q4 34 -15 60.5t-49 37t-64.5 5.5t-58.5 -27t-29 -55.5z" />
<glyph unicode="&#xc6;" horiz-adv-x="1767" d="M6 0l535 1241h1147v-176h-668v-352h557v-174h-557v-365h672v-174h-871v393h-442l-168 -393h-205zM453 567h368v492h-157z" />
<glyph unicode="&#xc7;" horiz-adv-x="1292" d="M63 610q0 305 166 480q166 172 441 172q234 0 387 -123q153 -126 153 -363l-196 -10q-27 326 -355 326q-183 0 -286 -125.5t-103 -345.5q0 -227 105 -349t293 -122q137 0 228 75.5t114 210.5l200 -12q-20 -201 -156.5 -317t-355.5 -127l-24 -64q203 6 203 -137 q0 -71 -56.5 -114.5t-158.5 -43.5q-110 0 -164 66l65 75q32 -38 84 -38q30 0 47 15.5t17 39.5q0 35 -27 47t-88 12h-53l49 144q-251 23 -390 187.5t-139 440.5z" />
<glyph unicode="&#xc8;" horiz-adv-x="1081" d="M137 0v1241h869v-176h-670v-352h559v-174h-559v-365h674v-174h-873zM328 1606l121 131l333 -334l-88 -82z" />
<glyph unicode="&#xc9;" horiz-adv-x="1081" d="M137 0v1241h869v-176h-670v-352h559v-174h-559v-365h674v-174h-873zM422 1401l336 336l119 -129l-371 -287z" />
<glyph unicode="&#xca;" horiz-adv-x="1081" d="M137 0v1241h869v-176h-670v-352h559v-174h-559v-365h674v-174h-873zM289 1362l219 317h168l213 -309l-123 -43l-168 213h-16l-166 -215z" />
<glyph unicode="&#xcb;" horiz-adv-x="1081" d="M137 0v1241h869v-176h-670v-352h559v-174h-559v-365h674v-174h-873zM294 1479q0 51 32 82q31 31 84.5 31t85.5 -31t32 -82t-32 -82q-32 -32 -85.5 -32t-84.5 32q-32 31 -32 82zM651 1479q0 51 33.5 81.5t87.5 30.5q51 0 83 -30.5t32 -81.5t-32 -83t-83 -32 q-54 0 -87.5 32t-33.5 83z" />
<glyph unicode="&#xcc;" horiz-adv-x="475" d="M-23 1606l121 131l334 -334l-88 -82zM137 0v1241h199v-1241h-199z" />
<glyph unicode="&#xcd;" horiz-adv-x="475" d="M72 1401l336 336l118 -129l-370 -287zM137 0v1241h199v-1241h-199z" />
<glyph unicode="&#xce;" horiz-adv-x="475" d="M-61 1362l219 317h168l213 -309l-123 -43l-168 213h-17l-165 -215zM137 0v1241h199v-1241h-199z" />
<glyph unicode="&#xcf;" horiz-adv-x="475" d="M-58 1479q0 51 31 82q32 31 86 31t86 -31t32 -82t-32 -82q-32 -32 -86 -32t-86 32q-31 31 -31 82zM137 0v1241h199v-1241h-199zM301 1479q0 51 33.5 81.5t87.5 30.5q51 0 83 -30.5t32 -81.5t-32 -83t-83 -32q-54 0 -87.5 32t-33.5 83z" />
<glyph unicode="&#xd0;" horiz-adv-x="1331" d="M27 547v155h110v539h486q280 0 440 -152t160 -438q0 -292 -179 -471q-180 -180 -485 -180h-422v547h-110zM336 178h223q210 0 333.5 125t123.5 336q0 200 -110.5 312t-303.5 112h-266v-361h299v-155h-299v-369z" />
<glyph unicode="&#xd1;" horiz-adv-x="1298" d="M135 0v1241h266l449 -735q74 -124 119 -221h10v956h182v-1241h-229l-604 1010h-11v-1010h-182zM319 1364q0 115 48 175t137 60q77 0 151 -51q77 -53 113 -53q76 0 76 98h133q0 -114 -52 -173.5t-147 -59.5q-71 0 -145 51t-111 51q-71 0 -71 -98h-132z" />
<glyph unicode="&#xd2;" horiz-adv-x="1392" d="M72 625q0 293 172 465t465 172q279 0 446 -170q166 -172 166 -463q0 -298 -172 -473q-173 -176 -465 -176q-286 0 -448 174q-164 173 -164 471zM279 623q0 -222 110 -347q111 -129 297 -129q198 0 313 129.5t115 350.5q0 217 -109 342t-298 125q-201 0 -314 -125 q-114 -126 -114 -346zM449 1606l120 131l334 -334l-88 -82z" />
<glyph unicode="&#xd3;" horiz-adv-x="1392" d="M72 625q0 293 172 465t465 172q279 0 446 -170q166 -172 166 -463q0 -298 -172 -473q-173 -176 -465 -176q-286 0 -448 174q-164 173 -164 471zM279 623q0 -222 110 -347q111 -129 297 -129q198 0 313 129.5t115 350.5q0 217 -109 342t-298 125q-201 0 -314 -125 q-114 -126 -114 -346zM543 1401l336 336l118 -129l-370 -287z" />
<glyph unicode="&#xd4;" horiz-adv-x="1392" d="M72 625q0 293 172 465t465 172q279 0 446 -170q166 -172 166 -463q0 -298 -172 -473q-173 -176 -465 -176q-286 0 -448 174q-164 173 -164 471zM279 623q0 -222 110 -347q111 -129 297 -129q198 0 313 129.5t115 350.5q0 217 -109 342t-298 125q-201 0 -314 -125 q-114 -126 -114 -346zM410 1362l219 317h168l213 -309l-123 -43l-168 213h-17l-165 -215z" />
<glyph unicode="&#xd5;" horiz-adv-x="1392" d="M72 625q0 293 172 465t465 172q279 0 446 -170q166 -172 166 -463q0 -298 -172 -473q-173 -176 -465 -176q-286 0 -448 174q-164 173 -164 471zM279 623q0 -222 110 -347q111 -129 297 -129q198 0 313 129.5t115 350.5q0 217 -109 342t-298 125q-201 0 -314 -125 q-114 -126 -114 -346zM381 1364q0 115 48 175t136 60q78 0 152 -51q77 -53 112 -53q76 0 76 98h133q0 -114 -51.5 -173.5t-146.5 -59.5q-72 0 -146 51t-110 51q-72 0 -72 -98h-131z" />
<glyph unicode="&#xd6;" horiz-adv-x="1392" d="M72 625q0 293 172 465t465 172q279 0 446 -170q166 -172 166 -463q0 -298 -172 -473q-173 -176 -465 -176q-286 0 -448 174q-164 173 -164 471zM279 623q0 -222 110 -347q111 -129 297 -129q198 0 313 129.5t115 350.5q0 217 -109 342t-298 125q-201 0 -314 -125 q-114 -126 -114 -346zM414 1479q0 51 32 82q31 31 84.5 31t85.5 -31t32 -82t-32 -82q-32 -32 -85.5 -32t-84.5 32q-32 31 -32 82zM772 1479q0 51 33.5 81.5t87.5 30.5q51 0 83 -30.5t32 -81.5t-32 -83t-83 -32q-54 0 -87.5 32t-33.5 83z" />
<glyph unicode="&#xd7;" d="M113 246l270 270l-270 268l102 103l270 -269l269 269l102 -103l-268 -268l268 -270l-102 -103l-269 271l-270 -271z" />
<glyph unicode="&#xd8;" horiz-adv-x="1390" d="M72 625q0 293 172 465t465 172q209 0 364 -103l115 131l108 -88l-118 -135q143 -168 143 -438q0 -298 -172 -473q-173 -176 -465 -176q-224 0 -371 106l-129 -145l-108 90l133 151q-137 168 -137 443zM279 623q0 -165 67 -287l602 684q-103 74 -241 74q-198 0 -313 -126 t-115 -345zM438 229q101 -82 248 -82q198 0 313 129.5t115 350.5q0 172 -72 288z" />
<glyph unicode="&#xd9;" horiz-adv-x="1259" d="M123 473v768h196v-741q0 -171 83 -258.5t239 -87.5q141 0 219 86.5t78 246.5v754h199v-766q0 -237 -132.5 -366t-369.5 -129q-247 0 -379.5 127t-132.5 366zM367 1606l120 131l334 -334l-88 -82z" />
<glyph unicode="&#xda;" horiz-adv-x="1259" d="M123 473v768h196v-741q0 -171 83 -258.5t239 -87.5q141 0 219 86.5t78 246.5v754h199v-766q0 -237 -132.5 -366t-369.5 -129q-247 0 -379.5 127t-132.5 366zM461 1401l336 336l118 -129l-370 -287z" />
<glyph unicode="&#xdb;" horiz-adv-x="1259" d="M123 473v768h196v-741q0 -171 83 -258.5t239 -87.5q141 0 219 86.5t78 246.5v754h199v-766q0 -237 -132.5 -366t-369.5 -129q-247 0 -379.5 127t-132.5 366zM328 1362l219 317h168l213 -309l-123 -43l-168 213h-16l-166 -215z" />
<glyph unicode="&#xdc;" horiz-adv-x="1259" d="M123 473v768h196v-741q0 -171 83 -258.5t239 -87.5q141 0 219 86.5t78 246.5v754h199v-766q0 -237 -132.5 -366t-369.5 -129q-247 0 -379.5 127t-132.5 366zM333 1479q0 51 32 82q31 31 84.5 31t85.5 -31t32 -82t-32 -82q-32 -32 -85.5 -32t-84.5 32q-32 31 -32 82z M690 1479q0 51 33.5 81.5t87.5 30.5q51 0 83 -30.5t32 -81.5t-32 -83t-83 -32q-54 0 -87.5 32t-33.5 83z" />
<glyph unicode="&#xdd;" horiz-adv-x="1157" d="M8 1241h221l340 -596h15l346 596h219l-481 -803v-438h-199v438zM428 1401l336 336l119 -129l-371 -287z" />
<glyph unicode="&#xde;" horiz-adv-x="1099" d="M137 0v1241h199v-225h301q197 0 309.5 -88.5t112.5 -261.5q0 -191 -118 -294.5t-329 -103.5h-276v-268h-199zM336 440h264q120 0 185 56.5t65 156.5q0 89 -57 140t-164 51h-293v-404z" />
<glyph unicode="&#xdf;" horiz-adv-x="1232" d="M31 723v168h108q31 0 31 29v16q0 187 149 285q149 96 371 96q199 0 316.5 -74.5t117.5 -204.5q0 -65 -21.5 -111.5t-72.5 -80.5q-55 -36 -96 -53q-32 -15 -131 -54q-57 -21 -80 -41.5t-23 -54.5q0 -40 36 -63t118 -43q79 -18 125.5 -34.5t99.5 -45.5q109 -62 109 -201 q0 -131 -100.5 -203.5t-268.5 -72.5q-287 0 -348 180l158 76q49 -101 192 -101q75 0 119.5 29t44.5 84q0 54 -43.5 84t-140.5 55q-96 21 -162 49q-45 17 -72 41q-27 25 -45 66.5t-18 89.5q0 89 54.5 142.5t170.5 94.5q109 41 152 74.5t43 87.5q0 61 -63 94t-171 33 q-325 0 -325 -248v-911h-195v723h-139z" />
<glyph unicode="&#xe0;" horiz-adv-x="991" d="M70 229q0 283 399 283h197v74q0 81 -49 123.5t-138 42.5q-182 0 -203 -156l-180 12q19 145 121.5 223t269.5 78q371 0 371 -317v-369q0 -78 49 -78q23 0 35 9l25 -144q-53 -30 -115 -30q-78 0 -123 41.5t-45 128.5q-89 -170 -303 -170q-139 0 -225 64.5t-86 184.5z M233 1278l121 131l334 -334l-88 -82zM272 254q0 -60 42 -92.5t112 -30.5q105 2 173.5 67.5t68.5 188.5h-174q-222 0 -222 -133z" />
<glyph unicode="&#xe1;" horiz-adv-x="991" d="M70 229q0 283 399 283h197v74q0 81 -49 123.5t-138 42.5q-182 0 -203 -156l-180 12q19 145 121.5 223t269.5 78q371 0 371 -317v-369q0 -78 49 -78q23 0 35 9l25 -144q-53 -30 -115 -30q-78 0 -123 41.5t-45 128.5q-89 -170 -303 -170q-139 0 -225 64.5t-86 184.5z M272 254q0 -60 42 -92.5t112 -30.5q105 2 173.5 67.5t68.5 188.5h-174q-222 0 -222 -133zM328 1073l336 336l118 -129l-370 -287z" />
<glyph unicode="&#xe2;" horiz-adv-x="991" d="M70 229q0 283 399 283h197v74q0 81 -49 123.5t-138 42.5q-182 0 -203 -156l-180 12q19 145 121.5 223t269.5 78q371 0 371 -317v-369q0 -78 49 -78q23 0 35 9l25 -144q-53 -30 -115 -30q-78 0 -123 41.5t-45 128.5q-89 -170 -303 -170q-139 0 -225 64.5t-86 184.5z M195 1034l219 318h168l213 -310l-123 -43l-168 213h-17l-165 -215zM272 254q0 -60 42 -92.5t112 -30.5q105 2 173.5 67.5t68.5 188.5h-174q-222 0 -222 -133z" />
<glyph unicode="&#xe3;" horiz-adv-x="991" d="M70 229q0 283 399 283h197v74q0 81 -49 123.5t-138 42.5q-182 0 -203 -156l-180 12q19 145 121.5 223t269.5 78q371 0 371 -317v-369q0 -78 49 -78q23 0 35 9l25 -144q-53 -30 -115 -30q-78 0 -123 41.5t-45 128.5q-89 -170 -303 -170q-139 0 -225 64.5t-86 184.5z M166 1036q0 115 48 175.5t136 60.5q78 0 152 -51q79 -54 112 -54q76 0 76 99h133q0 -114 -51.5 -174t-146.5 -60q-72 0 -146 51q-76 52 -110 52q-72 0 -72 -99h-131zM272 254q0 -60 42 -92.5t112 -30.5q105 2 173.5 67.5t68.5 188.5h-174q-222 0 -222 -133z" />
<glyph unicode="&#xe4;" horiz-adv-x="991" d="M70 229q0 283 399 283h197v74q0 81 -49 123.5t-138 42.5q-182 0 -203 -156l-180 12q19 145 121.5 223t269.5 78q371 0 371 -317v-369q0 -78 49 -78q23 0 35 9l25 -144q-53 -30 -115 -30q-78 0 -123 41.5t-45 128.5q-89 -170 -303 -170q-139 0 -225 64.5t-86 184.5z M199 1151q0 51 32 82q31 31 84.5 31t85.5 -31t32 -82t-32 -82q-32 -32 -85.5 -32t-84.5 32q-32 31 -32 82zM272 254q0 -60 42 -92.5t112 -30.5q105 2 173.5 67.5t68.5 188.5h-174q-222 0 -222 -133zM557 1151q0 51 33.5 82t87.5 31q51 0 83 -31t32 -82t-32 -83t-83 -32 q-54 0 -87.5 32t-33.5 83z" />
<glyph unicode="&#xe5;" horiz-adv-x="991" d="M70 229q0 283 399 283h197v74q0 81 -49 123.5t-138 42.5q-182 0 -203 -156l-180 12q19 145 121.5 223t269.5 78q371 0 371 -317v-369q0 -78 49 -78q23 0 35 9l25 -144q-53 -30 -115 -30q-78 0 -123 41.5t-45 128.5q-89 -170 -303 -170q-139 0 -225 64.5t-86 184.5z M262 1208q0 97 66.5 155t175.5 58q103 0 166 -56.5t63 -147.5q0 -100 -64.5 -160t-170.5 -60q-104 0 -170 58.5t-66 152.5zM272 254q0 -60 42 -92.5t112 -30.5q105 2 173.5 67.5t68.5 188.5h-174q-222 0 -222 -133zM391 1232.5q-5 -33.5 6 -63t38 -49.5t61 -16q51 0 80.5 29 t29.5 79q4 34 -15 60.5t-48.5 37t-64 5.5t-58.5 -27t-29 -55.5z" />
<glyph unicode="&#xe6;" horiz-adv-x="1564" d="M68 231q0 277 399 277h195v78q0 79 -50 122.5t-137 43.5q-180 0 -201 -156l-182 12q19 145 122.5 223t270.5 78q241 0 312 -145q109 145 305 145q190 0 295.5 -112.5t105.5 -315.5q0 -3 -4 -73h-647q15 -269 240 -269q170 0 211 150l186 -19q-64 -290 -404 -290 q-239 0 -344 194q-46 -90 -135.5 -142t-214.5 -52q-149 0 -236 65.5t-87 185.5zM270 254q0 -56 43 -89.5t113 -33.5q104 0 171 65.5t67 188.5h-172q-222 0 -222 -131zM858 541h445q-5 103 -59 158t-152 55q-196 0 -234 -213z" />
<glyph unicode="&#xe7;" horiz-adv-x="966" d="M59 446q0 202 123 334q123 129 320 129q194 0 299 -94.5t110 -257.5l-188 -4q-21 197 -217 197q-116 0 -180 -82.5t-64 -223.5q0 -142 64.5 -222.5t177.5 -80.5q176 0 213 168l190 -14q-52 -303 -387 -315l-24 -64q202 6 202 -137q0 -71 -56.5 -114.5t-158.5 -43.5 q-110 0 -164 66l66 75q32 -38 84 -38q30 0 46.5 15.5t16.5 39.5q0 35 -26.5 47t-87.5 12h-53l49 148q-169 25 -262 147t-93 313z" />
<glyph unicode="&#xe8;" horiz-adv-x="995" d="M59 438q0 211 125 342q126 129 332 129q198 0 308 -111t110 -313q0 -3 -4 -73l-670 -2q15 -271 254 -271q178 0 219 150l185 -19q-64 -290 -418 -290q-210 0 -325.5 119.5t-115.5 338.5zM254 1278l121 131l334 -334l-88 -82zM268 543h465q-4 102 -61.5 157.5t-157.5 55.5 q-202 0 -246 -213z" />
<glyph unicode="&#xe9;" horiz-adv-x="995" d="M59 438q0 211 125 342q126 129 332 129q198 0 308 -111t110 -313q0 -3 -4 -73l-670 -2q15 -271 254 -271q178 0 219 150l185 -19q-64 -290 -418 -290q-210 0 -325.5 119.5t-115.5 338.5zM268 543h465q-4 102 -61.5 157.5t-157.5 55.5q-202 0 -246 -213zM348 1073l336 336 l119 -129l-371 -287z" />
<glyph unicode="&#xea;" horiz-adv-x="995" d="M59 438q0 211 125 342q126 129 332 129q198 0 308 -111t110 -313q0 -3 -4 -73l-670 -2q15 -271 254 -271q178 0 219 150l185 -19q-64 -290 -418 -290q-210 0 -325.5 119.5t-115.5 338.5zM215 1034l219 318h168l213 -310l-123 -43l-168 213h-16l-166 -215zM268 543h465 q-4 102 -61.5 157.5t-157.5 55.5q-202 0 -246 -213z" />
<glyph unicode="&#xeb;" horiz-adv-x="995" d="M59 438q0 211 125 342q126 129 332 129q198 0 308 -111t110 -313q0 -3 -4 -73l-670 -2q15 -271 254 -271q178 0 219 150l185 -19q-64 -290 -418 -290q-210 0 -325.5 119.5t-115.5 338.5zM220 1151q0 51 32 82q31 31 84.5 31t85.5 -31t32 -82t-32 -82q-32 -32 -85.5 -32 t-84.5 32q-32 31 -32 82zM268 543h465q-4 102 -61.5 157.5t-157.5 55.5q-202 0 -246 -213zM578 1151q0 51 33 82t87 31q51 0 83 -31t32 -82t-32 -83t-83 -32q-54 0 -87 32t-33 83z" />
<glyph unicode="&#xec;" horiz-adv-x="471" d="M-25 1278l121 131l334 -334l-88 -82zM137 0v891h195v-891h-195z" />
<glyph unicode="&#xed;" horiz-adv-x="471" d="M70 1073l336 336l118 -129l-370 -287zM137 0v891h195v-891h-195z" />
<glyph unicode="&#xee;" horiz-adv-x="471" d="M-63 1034l219 318h168l213 -310l-123 -43l-168 213h-17l-166 -215zM137 0v891h195v-891h-195z" />
<glyph unicode="&#xef;" horiz-adv-x="471" d="M-60 1151q0 51 31 82q32 31 86 31t86 -31t32 -82t-32 -82q-32 -32 -86 -32t-86 32q-31 31 -31 82zM137 0v891h195v-891h-195zM299 1151q0 51 33.5 82t87.5 31q51 0 83 -31t32 -82t-32 -83t-83 -32q-54 0 -87.5 32t-33.5 83z" />
<glyph unicode="&#xf0;" horiz-adv-x="1042" d="M59 426q0 193 121 317q121 121 314 121q200 0 282 -123q-50 216 -203 324l-204 -135l-84 104l151 99q-98 39 -254 51l37 137q206 -9 371 -88l153 100l82 -100l-112 -74q137 -104 207.5 -262t70.5 -346q0 -269 -125 -419t-350 -150q-207 0 -332 122q-125 119 -125 322z M266 424q0 -130 68 -207.5t184 -77.5q126 0 194 79.5t68 217.5q0 127 -67.5 198t-186.5 71q-125 0 -192.5 -73t-67.5 -208z" />
<glyph unicode="&#xf1;" horiz-adv-x="1048" d="M137 0v891h182v-88q0 -10 -4 -76q89 182 289 182q324 0 324 -362v-547h-195v492q0 243 -184 243q-150 0 -217 -178v-557h-195zM215 1036q0 115 48 175.5t136 60.5q78 0 152 -51q79 -54 113 -54q75 0 75 99h133q0 -114 -51.5 -174t-146.5 -60q-72 0 -146 51 q-76 52 -110 52q-72 0 -72 -99h-131z" />
<glyph unicode="&#xf2;" horiz-adv-x="1032" d="M59 436q0 217 126 345t347 128q206 0 323.5 -125.5t117.5 -337.5q0 -215 -124.5 -340.5t-344.5 -125.5q-210 0 -327.5 121t-117.5 335zM264 440q0 -137 67.5 -219t182.5 -82q117 0 185.5 82t68.5 219q0 141 -66.5 224.5t-179.5 83.5q-119 0 -188.5 -83t-69.5 -225z M270 1278l121 131l334 -334l-88 -82z" />
<glyph unicode="&#xf3;" horiz-adv-x="1032" d="M59 436q0 217 126 345t347 128q206 0 323.5 -125.5t117.5 -337.5q0 -215 -124.5 -340.5t-344.5 -125.5q-210 0 -327.5 121t-117.5 335zM264 440q0 -137 67.5 -219t182.5 -82q117 0 185.5 82t68.5 219q0 141 -66.5 224.5t-179.5 83.5q-119 0 -188.5 -83t-69.5 -225z M365 1073l335 336l119 -129l-370 -287z" />
<glyph unicode="&#xf4;" horiz-adv-x="1032" d="M59 436q0 217 126 345t347 128q206 0 323.5 -125.5t117.5 -337.5q0 -215 -124.5 -340.5t-344.5 -125.5q-210 0 -327.5 121t-117.5 335zM231 1034l220 318h167l213 -310l-122 -43l-168 213h-17l-166 -215zM264 440q0 -137 67.5 -219t182.5 -82q117 0 185.5 82t68.5 219 q0 141 -66.5 224.5t-179.5 83.5q-119 0 -188.5 -83t-69.5 -225z" />
<glyph unicode="&#xf5;" horiz-adv-x="1032" d="M59 436q0 217 126 345t347 128q206 0 323.5 -125.5t117.5 -337.5q0 -215 -124.5 -340.5t-344.5 -125.5q-210 0 -327.5 121t-117.5 335zM203 1036q0 115 48 175.5t136 60.5q78 0 152 -51q79 -54 112 -54q76 0 76 99h133q0 -114 -51.5 -174t-146.5 -60q-72 0 -146 51 q-76 52 -110 52q-72 0 -72 -99h-131zM264 440q0 -137 67.5 -219t182.5 -82q117 0 185.5 82t68.5 219q0 141 -66.5 224.5t-179.5 83.5q-119 0 -188.5 -83t-69.5 -225z" />
<glyph unicode="&#xf6;" horiz-adv-x="1032" d="M59 436q0 217 126 345t347 128q206 0 323.5 -125.5t117.5 -337.5q0 -215 -124.5 -340.5t-344.5 -125.5q-210 0 -327.5 121t-117.5 335zM236 1151q0 51 32 82q31 31 84.5 31t85.5 -31t32 -82t-32 -82q-32 -32 -85.5 -32t-84.5 32q-32 31 -32 82zM264 440q0 -137 67.5 -219 t182.5 -82q117 0 185.5 82t68.5 219q0 141 -66.5 224.5t-179.5 83.5q-119 0 -188.5 -83t-69.5 -225zM594 1151q0 51 33.5 82t87.5 31q51 0 82.5 -31t31.5 -82t-31.5 -83t-82.5 -32q-54 0 -87.5 32t-33.5 83z" />
<glyph unicode="&#xf7;" d="M72 442v142h825v-142h-825zM352 199q0 54 36 89.5t93 35.5q55 0 91 -35.5t36 -89.5q0 -57 -35.5 -92t-91.5 -35q-57 0 -93 35t-36 92zM354 827q0 55 36 90t93 35q56 0 91.5 -35t35.5 -90t-36 -91t-91 -36q-57 0 -93 35.5t-36 91.5z" />
<glyph unicode="&#xf8;" horiz-adv-x="1032" d="M59 436q0 217 126 345t347 128q143 0 244 -61l78 94l100 -78l-82 -98q101 -122 101 -320q0 -215 -124.5 -340.5t-344.5 -125.5q-145 0 -248 59l-80 -94l-100 75l84 99q-101 119 -101 317zM258 440q0 -93 33 -166l368 439q-59 41 -139 41q-122 0 -192 -84t-70 -230z M371 174q58 -43 143 -43q118 0 187 84t69 225q0 97 -31 170z" />
<glyph unicode="&#xf9;" horiz-adv-x="1034" d="M117 350v541h194v-488q0 -251 181 -251q141 0 208 174v565h195v-891h-182v86q1 11 5 46.5t5 47.5q-82 -198 -287 -198q-319 0 -319 368zM246 1278l121 131l333 -334l-88 -82z" />
<glyph unicode="&#xfa;" horiz-adv-x="1034" d="M117 350v541h194v-488q0 -251 181 -251q141 0 208 174v565h195v-891h-182v86q1 11 5 46.5t5 47.5q-82 -198 -287 -198q-319 0 -319 368zM340 1073l336 336l119 -129l-371 -287z" />
<glyph unicode="&#xfb;" horiz-adv-x="1034" d="M117 350v541h194v-488q0 -251 181 -251q141 0 208 174v565h195v-891h-182v86q1 11 5 46.5t5 47.5q-82 -198 -287 -198q-319 0 -319 368zM207 1034l219 318h168l213 -310l-123 -43l-168 213h-16l-166 -215z" />
<glyph unicode="&#xfc;" horiz-adv-x="1034" d="M117 350v541h194v-488q0 -251 181 -251q141 0 208 174v565h195v-891h-182v86q1 11 5 46.5t5 47.5q-82 -198 -287 -198q-319 0 -319 368zM212 1151q0 51 32 82q31 31 84.5 31t85.5 -31t32 -82t-32 -82q-32 -32 -85.5 -32t-84.5 32q-32 31 -32 82zM569 1151q0 51 33.5 82 t87.5 31q51 0 83 -31t32 -82t-32 -83t-83 -32q-54 0 -87.5 32t-33.5 83z" />
<glyph unicode="&#xfd;" horiz-adv-x="944" d="M14 891h213l246 -694h16l232 694h207l-305 -850v-182q0 -133 -68 -199t-180 -66q-121 0 -187 54l48 153q45 -39 108 -39q89 0 98 76q5 35 2 191h-112zM315 1073l336 336l119 -129l-371 -287z" />
<glyph unicode="&#xfe;" horiz-adv-x="1083" d="M137 -395v1702h195v-381q0 -105 -8 -170q105 153 301 153q184 0 290.5 -119t106.5 -331q0 -224 -117 -351.5t-307 -127.5q-178 0 -266 126v-501h-195zM322 432q0 -136 66 -213.5t179 -77.5q117 0 183.5 81t66.5 227q0 140 -65.5 218t-176.5 78q-122 0 -187.5 -88 t-65.5 -225z" />
<glyph unicode="&#xff;" horiz-adv-x="944" d="M14 891h213l246 -694h16l232 694h207l-305 -850v-182q0 -133 -68 -199t-180 -66q-121 0 -187 54l48 153q45 -39 108 -39q89 0 98 76q5 35 2 191h-112zM187 1151q0 51 32 82q31 31 84.5 31t85.5 -31t32 -82t-32 -82q-32 -32 -85.5 -32t-84.5 32q-32 31 -32 82zM545 1151 q0 51 33.5 82t87.5 31q51 0 82.5 -31t31.5 -82t-31.5 -83t-82.5 -32q-54 0 -87.5 32t-33.5 83z" />
<glyph unicode="&#x152;" horiz-adv-x="1880" d="M70 625q0 290 170.5 453t470.5 163h1093v-176h-669v-352h559v-174h-559v-365h673v-174h-1124q-294 0 -454 162.5t-160 462.5zM279 623q0 -215 108.5 -334t298.5 -119h250v899h-229q-203 0 -315.5 -115.5t-112.5 -330.5z" />
<glyph unicode="&#x153;" horiz-adv-x="1675" d="M59 436q0 217 125.5 345t345.5 128q234 0 336 -164q114 164 336 164q196 0 304 -112t108 -318q0 -3 -4 -73h-656q15 -267 246 -267q172 0 213 150l184 -19q-64 -290 -413 -290q-228 0 -334 157q-115 -157 -348 -157q-210 0 -326.5 120.5t-116.5 335.5zM264 440 q0 -139 67 -220t183 -81q117 0 185.5 81t68.5 220q0 141 -66.5 224.5t-179.5 83.5q-119 0 -188.5 -83t-69.5 -225zM963 539h448q-4 104 -59.5 159.5t-153.5 55.5q-197 0 -235 -215z" />
<glyph unicode="&#x178;" horiz-adv-x="1157" d="M8 1241h221l340 -596h15l346 596h219l-481 -803v-438h-199v438zM300 1479q0 51 32 82q31 31 84.5 31t85.5 -31t32 -82t-32 -82q-32 -32 -85.5 -32t-84.5 32q-32 31 -32 82zM657 1479q0 51 33.5 81.5t87.5 30.5q51 0 83 -30.5t32 -81.5t-32 -83t-83 -32q-54 0 -87.5 32 t-33.5 83z" />
<glyph unicode="&#x2c6;" horiz-adv-x="819" d="M109 1057l219 317h168l213 -309l-123 -43l-168 213h-17l-165 -215z" />
<glyph unicode="&#x2dc;" horiz-adv-x="819" d="M80 1059q0 115 48 175t136 60q78 0 152 -51q77 -53 112 -53q76 0 76 98h133q0 -114 -51.5 -173.5t-146.5 -59.5q-72 0 -146 51t-110 51q-72 0 -72 -98h-131z" />
<glyph unicode="&#x2000;" horiz-adv-x="874" />
<glyph unicode="&#x2001;" horiz-adv-x="1749" />
<glyph unicode="&#x2002;" horiz-adv-x="874" />
<glyph unicode="&#x2003;" horiz-adv-x="1749" />
<glyph unicode="&#x2004;" horiz-adv-x="583" />
<glyph unicode="&#x2005;" horiz-adv-x="437" />
<glyph unicode="&#x2006;" horiz-adv-x="291" />
<glyph unicode="&#x2007;" horiz-adv-x="291" />
<glyph unicode="&#x2008;" horiz-adv-x="218" />
<glyph unicode="&#x2009;" horiz-adv-x="349" />
<glyph unicode="&#x200a;" horiz-adv-x="97" />
<glyph unicode="&#x2010;" horiz-adv-x="600" d="M76 418v174h446v-174h-446z" />
<glyph unicode="&#x2011;" horiz-adv-x="600" d="M76 418v174h446v-174h-446z" />
<glyph unicode="&#x2012;" horiz-adv-x="600" d="M76 418v174h446v-174h-446z" />
<glyph unicode="&#x2013;" horiz-adv-x="1185" d="M113 455v149h960v-149h-960z" />
<glyph unicode="&#x2014;" horiz-adv-x="1923" d="M113 455v149h1697v-149h-1697z" />
<glyph unicode="&#x2018;" horiz-adv-x="468" d="M74 1004q0 228 268 290l39 -90q-170 -59 -170 -166v-18q23 20 82 20q44 0 73 -29t29 -75q0 -58 -41 -90.5t-104 -32.5q-79 0 -127.5 54t-48.5 137z" />
<glyph unicode="&#x2019;" horiz-adv-x="468" d="M74 1147q0 55 41.5 88t103.5 33q78 0 127 -54t49 -135q0 -229 -270 -293l-39 91q172 64 172 170v16q-26 -23 -82 -23q-43 0 -72.5 30t-29.5 77z" />
<glyph unicode="&#x201a;" horiz-adv-x="460" d="M70 88q0 58 41 90.5t104 32.5q78 0 127 -55t49 -136q0 -226 -270 -290l-39 92q172 58 172 168v14q-27 -18 -82 -18q-45 0 -73.5 27.5t-28.5 74.5z" />
<glyph unicode="&#x201c;" horiz-adv-x="847" d="M74 1004q0 228 268 290l39 -90q-170 -59 -170 -166v-18q23 20 82 20q44 0 73 -29t29 -75q0 -58 -41 -90.5t-104 -32.5q-79 0 -127.5 54t-48.5 137zM451 1004q0 228 268 290l39 -90q-170 -59 -170 -166v-18q26 20 82 20q44 0 73 -29t29 -75q0 -58 -41 -90.5t-104 -32.5 q-79 0 -127.5 54t-48.5 137z" />
<glyph unicode="&#x201d;" horiz-adv-x="845" d="M74 1147q0 55 41.5 88t103.5 33q78 0 127 -54t49 -135q0 -229 -270 -293l-39 91q172 64 172 170v16q-26 -23 -82 -23q-43 0 -72.5 30t-29.5 77zM451 1147q0 55 41.5 88t103.5 33q78 0 127 -54t49 -135q0 -229 -270 -293l-39 91q172 64 172 170v16q-26 -23 -82 -23 q-43 0 -72.5 30t-29.5 77z" />
<glyph unicode="&#x201e;" horiz-adv-x="845" d="M70 88q0 58 41 90.5t104 32.5q78 0 127 -55t49 -136q0 -226 -270 -290l-39 92q172 58 172 168v14q-27 -18 -82 -18q-45 0 -73.5 27.5t-28.5 74.5zM446 88q0 58 41.5 90.5t104.5 32.5q78 0 127 -55t49 -136q0 -226 -270 -290l-39 92q172 58 172 168v14q-27 -18 -82 -18 q-45 0 -74 28t-29 74z" />
<glyph unicode="&#x2022;" horiz-adv-x="679" d="M162 524q0 78 49 126t129 48q79 0 127.5 -48t48.5 -126q0 -80 -47 -127q-49 -49 -129 -49t-129 49q-49 46 -49 127z" />
<glyph unicode="&#x2026;" horiz-adv-x="1574" d="M111 123q0 61 40 100t103 39t102 -38.5t39 -100.5q0 -64 -39 -103q-29 -30 -74 -36t-84 8t-65.5 49.5t-21.5 81.5zM643 123q0 61 40 100t103 39t102.5 -38.5t39.5 -100.5q0 -64 -39 -103q-29 -30 -74 -36t-84.5 8t-66 49.5t-21.5 81.5zM1176 123q0 61 40 100t103 39 t102 -38.5t39 -100.5q0 -64 -39 -103q-29 -30 -74 -36t-84 8t-65.5 49.5t-21.5 81.5z" />
<glyph unicode="&#x202f;" horiz-adv-x="349" />
<glyph unicode="&#x2039;" horiz-adv-x="534" d="M82 420v127l326 282l47 -131l-201 -202v-19l201 -207l-54 -131z" />
<glyph unicode="&#x203a;" horiz-adv-x="534" d="M78 270l201 201v21l-201 204l55 133l320 -282v-125l-326 -283z" />
<glyph unicode="&#x205f;" horiz-adv-x="437" />
<glyph unicode="&#x20ac;" horiz-adv-x="1189" d="M29 373v123h141q-2 14 -2 67q0 48 2 60h-141v122h159q49 189 190.5 294.5t342.5 105.5q290 0 426 -201l-137 -104q-103 145 -283 145q-267 0 -340 -240h389v-122h-411q-3 -15 -3 -50q0 -8 1 -19.5t2 -28.5t2 -29h409v-123h-385q77 -232 330 -232q182 0 287 117l131 -102 q-138 -176 -424 -176q-206 0 -342.5 103t-184.5 290h-159z" />
<glyph unicode="&#x2122;" horiz-adv-x="1425" d="M27 1128v113h503v-113h-188v-428h-129v428h-186zM592 700v541h174l178 -407h8l181 407h174v-541h-121v390h-8l-174 -390h-113l-174 390h-6v-390h-119z" />
<glyph unicode="&#x25fc;" horiz-adv-x="890" d="M0 0v891h891v-891h-891z" />
</font>
</defs>
</svg>
