<?xml version="1.0" standalone="no"?>
<!DOCTYPE svg PUBLIC "-//W3C//DTD SVG 1.1//EN" "http://www.w3.org/Graphics/SVG/1.1/DTD/svg11.dtd" >
<svg xmlns="http://www.w3.org/2000/svg" xmlns:xlink="http://www.w3.org/1999/xlink" version="1.1">
<metadata></metadata>
<defs>
<font id="equitan_sansthin" horiz-adv-x="1388" >
<font-face units-per-em="2048" ascent="1569" descent="-479" />
<missing-glyph horiz-adv-x="368" />
<glyph unicode="&#xfb01;" horiz-adv-x="942" d="M41 846v45h141q27 0 27 24v123q0 138 57.5 207.5t159.5 69.5q103 0 154 -39l-23 -41q-56 35 -129 35q-170 0 -170 -232v-147h510v-891h-49v846h-461v-846h-49v846h-168zM696 1227q0 22 15 34t32.5 12t32.5 -12t15 -34q0 -21 -13 -37q-23 -24 -52.5 -10.5t-29.5 47.5z" />
<glyph unicode="&#xfb02;" horiz-adv-x="952" d="M41 846v45h141q27 0 27 24v123q0 138 58.5 207.5t160.5 69.5q99 0 152 -39l-23 -41q-53 35 -127 35q-172 0 -172 -232v-147h254v-45h-254v-846h-49v846h-168zM729 0v1307h49v-1307h-49z" />
<glyph horiz-adv-x="0" />
<glyph horiz-adv-x="682" />
<glyph horiz-adv-x="0" />
<glyph horiz-adv-x="0" />
<glyph unicode="&#xd;" horiz-adv-x="681" />
<glyph unicode=" "  horiz-adv-x="368" />
<glyph unicode="&#x09;" horiz-adv-x="368" />
<glyph unicode="&#xa0;" horiz-adv-x="368" />
<glyph unicode="!" horiz-adv-x="616" d="M252 47q0 25 15.5 40t41.5 15q25 0 40.5 -15t15.5 -40q0 -26 -15.5 -41.5t-40.5 -15.5q-57 0 -57 57zM283 684v594h51v-592q0 -213 -10 -356h-31q-10 188 -10 354z" />
<glyph unicode="&#x22;" horiz-adv-x="663" d="M162 1241h69l-16 -434h-37zM432 1241h70l-17 -434h-36z" />
<glyph unicode="#" horiz-adv-x="1286" d="M123 227v43h239v506h-239v43h239v234h48v-234h467v234h47v-234h239v-43h-239v-506h239v-43h-239v-227h-47v227h-467v-227h-48v227h-239zM410 270h467v506h-467v-506z" />
<glyph unicode="$" horiz-adv-x="993" d="M109 340h49q15 -243 319 -258v508q-195 59 -266 121q-74 62 -74 174q0 110 95.5 181t244.5 71v174h41v-174q341 -21 344 -322h-49q-12 139 -84 204t-211 73v-461q200 -60 283.5 -131.5t83.5 -182.5q0 -132 -99 -207t-268 -75v-203h-41v203q-164 6 -264 84t-104 221z M193 889q0 -96 59 -146q55 -50 225 -100v449q-129 0 -206.5 -55.5t-77.5 -147.5zM518 82q147 2 229 60.5t82 162.5q0 102 -69.5 162.5t-241.5 110.5v-496z" />
<glyph unicode="%" d="M82 719q0 108 70 172q68 65 182 65q112 0 180 -63t68 -166q0 -109 -71.5 -175.5t-188.5 -66.5q-111 0 -175 64q-65 65 -65 170zM133 721q0 -85 52.5 -139t136.5 -54q91 0 148.5 54.5t57.5 140.5q0 85 -55 137.5t-143 52.5q-87 0 -142 -53t-55 -139zM307 0l725 948h58 l-725 -948h-58zM807 217q0 108 70 172q69 66 182 66q112 0 180 -63.5t68 -166.5q0 -109 -71.5 -175t-188.5 -66q-112 0 -175 63q-65 65 -65 170zM858 219q0 -85 52.5 -138.5t136.5 -53.5q91 0 148.5 54t57.5 140q0 85 -55 138t-143 53q-87 0 -142 -53.5t-55 -139.5z" />
<glyph unicode="&#x26;" horiz-adv-x="1374" d="M106 291q0 247 347 373q-76 91 -110 159.5t-34 139.5q0 133 95.5 215t250.5 82q145 0 227.5 -68.5t82.5 -185.5q0 -186 -289 -306q-13 -5 -61 -23t-85 -32q1 0 35 -41l297 -342q21 -21 33 -37q186 174 254 437h49q-70 -276 -272 -469q164 -164 274 -164q52 0 94 22 l19 -45q-47 -24 -119 -24q-129 0 -305 176q-203 -176 -428 -176q-148 0 -252 84q-103 83 -103 225zM162 297q0 -121 84.5 -194.5t216.5 -73.5q204 0 395 161q-24 30 -33 39l-293 340l-51 60q-170 -60 -244.5 -140.5t-74.5 -191.5zM362 961q0 -109 138 -279q9 4 137 49 q59 19 133 62q78 45 104 88q39 64 39 125q0 97 -68.5 152.5t-187.5 55.5q-136 0 -215.5 -66.5t-79.5 -186.5z" />
<glyph unicode="'" horiz-adv-x="393" d="M162 1241h69l-16 -434h-37z" />
<glyph unicode="(" horiz-adv-x="692" d="M176 563q0 379 129 572q128 192 313 192h33v-43h-26q-182 0 -292 -190.5t-110 -528.5q0 -342 113 -534q111 -193 289 -193h26v-43h-35q-184 0 -311 195q-129 197 -129 573z" />
<glyph unicode=")" horiz-adv-x="692" d="M41 -162h27q182 0 291.5 190t109.5 529q0 341 -111 535q-113 192 -290 192h-27v43h35q184 0 313 -194q127 -198 127 -574q0 -375 -129 -571q-129 -193 -313 -193h-33v43z" />
<glyph unicode="*" horiz-adv-x="800" d="M123 1112l10 37l244 -76l4 254h37l6 -254l244 74l10 -35l-240 -82l146 -211l-31 -20l-152 205l-153 -205l-31 20l148 209z" />
<glyph unicode="+" horiz-adv-x="968" d="M88 494v41h375v391h43v-391h375v-41h-375v-392h-43v392h-375z" />
<glyph unicode="," horiz-adv-x="401" d="M96 -186q69 14 107.5 55t38.5 102q0 48 -23 64q-18 -41 -55 -41q-21 0 -35 15t-14 38q0 57 71 57q47 0 75 -36.5t28 -92.5q0 -79 -49 -131t-136 -69z" />
<glyph unicode="-" horiz-adv-x="534" d="M61 508v51h412v-51h-412z" />
<glyph unicode="." horiz-adv-x="399" d="M143 47q0 25 16 40t42 15q25 0 40 -15t15 -40q0 -26 -15 -41.5t-40 -15.5q-58 0 -58 57z" />
<glyph unicode="/" horiz-adv-x="751" d="M41 -205l625 1532h45l-625 -1532h-45z" />
<glyph unicode="0" horiz-adv-x="1036" d="M119 465q0 220 108 358t297 138q182 0 288 -132.5t106 -355.5t-111.5 -356t-302.5 -133q-182 0 -283 131q-102 129 -102 350zM172 467q0 -204 90 -321t246 -117q164 0 260 118t96 320q0 206 -93 327t-249 121q-164 0 -257 -118.5t-93 -329.5z" />
<glyph unicode="1" horiz-adv-x="636" d="M51 797l301 151h51v-948h-49v895l-284 -141z" />
<glyph unicode="2" horiz-adv-x="952" d="M102 0v53l351 258q169 123 243 207q70 79 70 180t-77 160.5t-202 59.5q-145 0 -223 -69.5t-78 -182.5v-21h-51v27q0 134 96 212.5t258 78.5q149 0 239.5 -72t90.5 -191q0 -105 -77.5 -198t-252.5 -219l-321 -234h686v-49h-752z" />
<glyph unicode="3" horiz-adv-x="931" d="M76 -6l49 2q6 -126 93.5 -196t230.5 -70q156 0 249 84.5t93 236.5q0 129 -91 196.5t-262 67.5q-72 0 -129 -8l-6 45q245 41 344 109q101 67 101 207q0 116 -77.5 183t-199.5 67q-154 0 -235.5 -66.5t-81.5 -179.5v-21h-50v21q0 132 97 211.5t268 79.5q149 0 240.5 -79.5 t91.5 -209.5q0 -140 -82.5 -217.5t-261.5 -106.5v-2q154 12 272 -59q115 -74 115 -240q0 -164 -111 -266q-110 -98 -284 -98q-160 0 -267 82q-106 81 -106 227z" />
<glyph unicode="4" horiz-adv-x="980" d="M49 96v49l627 803h61v-805h213v-47h-213v-389h-49v389h-639zM106 143h582v740h-4z" />
<glyph unicode="5" horiz-adv-x="929" d="M117 -25l49 2q30 -247 297 -247q148 0 242 104t94 272q0 161 -83.5 256t-228.5 95q-186 0 -288 -181l-52 5v667h674v-49h-628v-563q88 166 299 166q169 0 264.5 -106t95.5 -287q0 -185 -109 -306q-106 -118 -280 -118q-146 0 -240 73t-106 217z" />
<glyph unicode="6" horiz-adv-x="1024" d="M139 541q0 346 113.5 533.5t316.5 187.5q142 0 230 -68.5t108 -192.5l-47 -8q-52 224 -293 224q-177 0 -275.5 -174t-98.5 -476q0 -53 2 -65q30 125 124 203.5t220 78.5q168 0 268 -106t100 -289q0 -184 -100 -293q-100 -112 -270 -112q-196 0 -297 132.5t-101 424.5z M211 375q0 -155 92 -250q90 -96 227 -96q148 0 236 97t88 261q0 156 -86 253t-231 97q-135 0 -230 -102q-96 -107 -96 -260z" />
<glyph unicode="7" horiz-adv-x="794" d="M12 895v49h752v-51l-516 -1182h-53l522 1184h-705z" />
<glyph unicode="8" horiz-adv-x="1050" d="M121 336q0 120 77 206.5t195 110.5v4q-99 25 -164 105.5t-65 183.5q0 138 100 225q105 91 264 91q163 0 263 -88t100 -224q0 -109 -65.5 -188.5t-172.5 -104.5v-4q119 -21 198 -108.5t79 -212.5q0 -159 -109 -253.5t-289 -94.5q-193 0 -302 92.5t-109 259.5zM174 334 q0 -141 96.5 -223t253.5 -82t255 82.5t98 220.5q0 133 -97.5 215t-251.5 82q-158 0 -256 -82t-98 -213zM217 950q0 -123 84 -198.5t223 -75.5t226.5 76t87.5 198q0 119 -85 193t-225 74q-139 0 -225 -74.5t-86 -192.5z" />
<glyph unicode="9" horiz-adv-x="1017" d="M115 -53l47 12q19 -107 96 -167t203 -60q183 0 275.5 164.5t92.5 470.5q0 84 -2 104q-26 -124 -121 -202.5t-223 -78.5q-168 0 -267 102.5t-99 278.5q0 173 104 280t271 107q193 0 292 -134.5t99 -434.5q0 -343 -110 -523.5t-314 -180.5q-142 0 -233 69.5t-111 192.5z M170 573q0 -151 85 -244t230 -93q137 0 230 100q94 101 94 250q0 150 -89 238.5t-228 88.5q-148 0 -235 -92.5t-87 -247.5z" />
<glyph unicode=":" horiz-adv-x="425" d="M156 47q0 25 15.5 40t41.5 15q25 0 40 -15t15 -40q0 -26 -15 -41.5t-40 -15.5q-57 0 -57 57zM158 655q0 25 15.5 40.5t41.5 15.5q25 0 40 -15.5t15 -40.5q0 -26 -15 -41.5t-40 -15.5q-57 0 -57 57z" />
<glyph unicode=";" horiz-adv-x="421" d="M106 -186q69 14 107.5 55t38.5 102q0 48 -23 64q-18 -41 -55 -41q-21 0 -35 15t-14 38q0 57 72 57q46 0 74 -36t28 -93q0 -79 -48.5 -131t-135.5 -69zM145 655q0 25 16 40.5t42 15.5q25 0 40 -15.5t15 -40.5q0 -26 -15 -41.5t-40 -15.5q-58 0 -58 57z" />
<glyph unicode="&#x3c;" horiz-adv-x="970" d="M178 498v34l627 295v-45l-553 -262v-8l561 -260v-47z" />
<glyph unicode="=" horiz-adv-x="970" d="M129 348v41h713v-41h-713zM129 639v41h713v-41h-713z" />
<glyph unicode="&#x3e;" horiz-adv-x="970" d="M178 780v47l635 -292v-35l-627 -295v45l553 262v8z" />
<glyph unicode="?" horiz-adv-x="1001" d="M92 985q0 152 113 236t311 84q181 0 281 -77t100 -212q0 -142 -106 -221q-53 -41 -99 -65t-137 -62q-134 -56 -185 -98t-51 -99q0 -59 39 -88q26 -22 64 -30t82.5 3t79.5 43l30 -37q-63 -57 -155 -57t-140 45q-51 45 -51 115q0 75 59.5 129t209.5 117q74 33 129 59 q47 24 90 57q48 34 68 76.5t20 104.5q0 119 -85 184t-247 65q-174 0 -270.5 -71t-96.5 -201q0 -55 21 -102l-47 -19q-27 46 -27 121zM397 47q0 25 16 40t42 15q25 0 40 -15t15 -40q0 -26 -15 -41.5t-40 -15.5q-58 0 -58 57z" />
<glyph unicode="@" horiz-adv-x="1912" d="M164 395q0 149 54 286t157 247q105 111 267 174t357 63q352 0 551 -196q199 -199 199 -484q0 -236 -92.5 -368.5t-259.5 -132.5q-88 0 -146.5 50t-58.5 138v37q-74 -225 -330 -225q-104 0 -177 59t-73 158q0 115 96 175t269 60h209v90q0 119 -62.5 182.5t-179.5 63.5 q-230 0 -254 -203l-49 2q10 116 92.5 180t208.5 64q140 0 216.5 -74t76.5 -223v-336q0 -74 45.5 -116.5t118.5 -42.5q148 0 225.5 120.5t77.5 343.5q0 269 -189 455q-191 182 -514 182q-152 0 -281.5 -39.5t-221.5 -108.5t-157 -161.5t-96.5 -199t-31.5 -220.5 q0 -111 22 -210t76.5 -192t137 -160.5t211.5 -108.5t292 -43q74 0 172 16l4 -43q-80 -14 -172 -14q-213 1 -373 63.5t-249 173.5q-168 211 -168 518zM664 203q0 -77 57.5 -125.5t146.5 -48.5q153 0 236.5 95t83.5 271h-213q-311 0 -311 -192z" />
<glyph unicode="A" horiz-adv-x="1077" d="M33 0l469 1241h76l466 -1241h-55l-166 442h-571l-168 -442h-51zM270 492h535l-260 696h-13z" />
<glyph unicode="B" horiz-adv-x="1144" d="M178 0v1241h410q397 0 397 -299q0 -116 -76 -201t-194 -102v-4q138 -5 223.5 -80.5t85.5 -198.5q0 -170 -105 -263t-311 -93h-430zM231 49h385q174 0 263.5 78t89.5 215q0 126 -87 195t-241 69h-410v-557zM231 655h361q153 0 245.5 82t92.5 209q0 119 -83.5 182.5 t-238.5 63.5h-377v-537z" />
<glyph unicode="C" horiz-adv-x="1265" d="M106 610q0 295 158 473q157 177 408 177q218 0 348 -114.5t147 -328.5l-49 -4q-40 399 -448 399q-231 0 -367 -161q-141 -163 -141 -433q0 -281 135 -433t375 -152q178 0 292 92.5t146 265.5l47 -6q-25 -185 -155.5 -293t-335.5 -108q-258 0 -408 166q-152 166 -152 460z " />
<glyph unicode="D" horiz-adv-x="1269" d="M178 0v1241h426q240 0 402 -149q159 -150 159 -435q0 -291 -161 -473q-163 -184 -418 -184h-408zM229 47h344q247 0 390 168q145 168 145 438q0 255 -138 398t-374 143h-367v-1147z" />
<glyph unicode="E" horiz-adv-x="999" d="M178 0v1241h754v-49h-703v-537h600v-49h-600v-557h707v-49h-758z" />
<glyph unicode="F" horiz-adv-x="966" d="M178 0v1241h744v-49h-693v-547h629v-49h-629v-596h-51z" />
<glyph unicode="G" d="M111 612q0 299 165 473q163 175 422 175q198 0 342 -105q143 -110 164 -336l-53 -2q-52 395 -455 395q-243 0 -385 -161q-145 -165 -145 -428q0 -278 145 -435t379 -157q308 0 440 299q42 92 48 188h-451v49h498v-567h-47v342q-59 -170 -190 -264t-300 -94 q-258 0 -416 168q-161 164 -161 460z" />
<glyph unicode="H" horiz-adv-x="1296" d="M178 0v1241h51v-586h838v586h51v-1241h-51v606h-838v-606h-51z" />
<glyph unicode="I" horiz-adv-x="407" d="M178 0v1241h51v-1241h-51z" />
<glyph unicode="J" horiz-adv-x="958" d="M76 326v59h51v-51q0 -146 83.5 -223.5t229.5 -77.5q126 0 215 71q88 70 88 236v852h-354v49h406v-883q0 -207 -103 -290q-107 -84 -256 -84q-165 0 -262.5 89t-97.5 253z" />
<glyph unicode="K" horiz-adv-x="1118" d="M178 0v1241h51v-819h7l761 819h66l-528 -567l538 -674h-65l-508 635l-271 -287v-348h-51z" />
<glyph unicode="L" horiz-adv-x="894" d="M178 0v1241h51v-1192h645v-49h-696z" />
<glyph unicode="M" horiz-adv-x="1587" d="M178 0v1241h90l525 -1171h8l522 1171h86v-1241h-49v1184h-10l-531 -1184h-47l-534 1194h-11v-1194h-49z" />
<glyph unicode="N" horiz-adv-x="1257" d="M178 0v1241h66l667 -987q11 -19 58 -86.5t55 -79.5h6v1153h49v-1241h-57l-791 1169h-4v-1169h-49z" />
<glyph unicode="O" d="M104 625q0 286 168 460q166 175 439 175q249 0 413 -173q160 -177 160 -456q0 -293 -164 -469q-163 -178 -434 -178q-263 0 -422 176q-160 177 -160 465zM160 625q0 -265 145 -430q144 -164 379 -164q247 0 397 164q148 165 148 434q0 265 -144 424t-378 159 q-251 0 -398 -159q-149 -162 -149 -428z" />
<glyph unicode="P" horiz-adv-x="1040" d="M178 0v1241h424q182 0 281.5 -79.5t99.5 -235.5q0 -166 -101.5 -257t-289.5 -91h-363v-578h-51zM229 627h379q152 0 235 78.5t83 218.5q0 130 -82.5 199t-235.5 69h-379v-565z" />
<glyph unicode="Q" d="M104 625q0 286 168 460q166 175 439 175q249 0 413 -173q160 -177 160 -456q0 -245 -118.5 -413.5t-321.5 -215.5l74 -80q87 -100 159 -100t115 104l43 -22q-26 -70 -63.5 -100.5t-96.5 -30.5q-92 0 -205 125l-86 92q-46 -6 -98 -6q-263 0 -422 176q-160 177 -160 465z M160 625q0 -265 145 -430q144 -164 379 -164q247 0 397 164q148 165 148 434q0 265 -144 424t-378 159q-251 0 -398 -159q-149 -162 -149 -428z" />
<glyph unicode="R" horiz-adv-x="1204" d="M178 0v1241h502q381 0 381 -315q0 -138 -82 -222.5t-229 -101.5v-4q108 -17 154 -66.5t57 -154.5l22 -203q11 -82 26.5 -111.5t49.5 -29.5h26l5 -47q-8 -2 -37 -2q-55 0 -83 40t-38 142l-21 201q-11 116 -73 162t-209 46h-400v-575h-51zM229 627h414q174 0 268.5 79.5 t94.5 215.5q0 139 -80 205.5t-246 66.5h-451v-567z" />
<glyph unicode="S" horiz-adv-x="1064" d="M94 344l51 4q10 -160 115 -237.5t285 -77.5q168 0 263 72t95 202q0 109 -82 176q-80 65 -295 131q-218 62 -311 140q-88 73 -88 209q0 131 106 214t277 83q424 0 430 -363l-51 -2q-13 170 -105.5 243.5t-275.5 73.5q-147 0 -236.5 -67t-89.5 -176q0 -120 78 -183 q72 -58 289 -124q224 -66 319 -146q90 -81 90 -205q0 -153 -112 -240t-307 -87q-200 0 -320.5 91t-124.5 269z" />
<glyph unicode="T" horiz-adv-x="1032" d="M10 1192v49h1012v-49h-479v-1192h-51v1192h-482z" />
<glyph unicode="U" horiz-adv-x="1204" d="M168 432v809h51v-790q0 -207 101.5 -312.5t293.5 -105.5q173 0 272 105.5t99 293.5v809h51v-792q0 -222 -112 -343.5t-314 -121.5q-212 0 -327 115t-115 333z" />
<glyph unicode="V" horiz-adv-x="1058" d="M14 1241h56l454 -1182h13l454 1182h53l-479 -1241h-71z" />
<glyph unicode="W" horiz-adv-x="1806" d="M33 1241h53l422 -1184h10l369 1184h65l359 -1180h12l393 1180h56l-418 -1241h-78l-352 1180h-9l-362 -1180h-78z" />
<glyph unicode="X" horiz-adv-x="1105" d="M41 0l475 641l-438 600h63l410 -561h6l420 561h59l-444 -596l473 -645h-64l-444 606h-6l-451 -606h-59z" />
<glyph unicode="Y" horiz-adv-x="1038" d="M14 1241h62l440 -688h6l443 688h59l-481 -747v-494h-51v496z" />
<glyph unicode="Z" horiz-adv-x="1054" d="M41 0v49l883 1149q-82 -4 -254 -4h-551v47h860v-49l-766 -997q-87 -114 -121 -148h881v-47h-932z" />
<glyph unicode="[" horiz-adv-x="661" d="M225 -205v1532h355v-43h-310v-1446h310v-43h-355z" />
<glyph unicode="\" horiz-adv-x="751" d="M41 1327h45l625 -1532h-45z" />
<glyph unicode="]" horiz-adv-x="659" d="M82 -162h307v1446h-307v43h352v-1532h-352v43z" />
<glyph unicode="^" horiz-adv-x="841" d="M143 809l252 432h54l249 -434l-32 -10l-242 399h-6l-242 -397z" />
<glyph unicode="_" horiz-adv-x="632" d="M20 -20h592v-46h-592v46z" />
<glyph unicode="`" horiz-adv-x="819" d="M211 1352l35 43l329 -320l-26 -26z" />
<glyph unicode="a" horiz-adv-x="942" d="M106 223q0 256 347 256h274v133q0 252 -256 252q-254 0 -281 -231h-49q27 274 330 274q305 0 305 -307v-463q0 -60 14 -84t46 -24q23 0 41 12l14 -41q-22 -16 -60 -16q-100 0 -100 143v115q-79 -258 -344 -258q-125 0 -203 63t-78 176zM162 231q0 -99 65 -151.5 t172 -52.5q133 0 232 102q98 101 98 307h-264q-156 -2 -229.5 -51.5t-73.5 -153.5z" />
<glyph unicode="b" horiz-adv-x="1056" d="M176 0v1307h49v-430q0 -179 -2 -234q37 121 132.5 192.5t219.5 71.5q167 0 275 -123q108 -126 108 -329q0 -222 -112 -346q-113 -125 -281 -125q-121 0 -210 63t-132 176v-223h-47zM223 430q0 -193 101 -297t237 -104q154 0 249 112t95 301q0 190 -94.5 304t-245.5 114 q-143 0 -243 -115q-99 -114 -99 -315z" />
<glyph unicode="c" horiz-adv-x="919" d="M98 438q0 215 109 342t282 127q156 0 251 -86t102 -237l-51 -2q-12 138 -91.5 210t-214.5 72q-152 0 -242.5 -117.5t-90.5 -308.5q0 -195 90 -302t245 -107q237 0 301 241l48 -8q-64 -278 -351 -278q-181 0 -284 117t-103 337z" />
<glyph unicode="d" horiz-adv-x="1052" d="M98 430q0 220 115 350q115 127 281 127q120 0 206.5 -60t128.5 -167v627h50v-1307h-48v244q-38 -120 -132 -190t-212 -70q-163 0 -276 122q-113 119 -113 324zM152 438q0 -186 95 -297.5t245 -111.5q147 0 245 116q97 120 97 318q0 190 -99 295q-101 104 -233 104 q-155 0 -252.5 -115.5t-97.5 -308.5z" />
<glyph unicode="e" horiz-adv-x="968" d="M98 436q0 209 113 340t291 131q167 0 265.5 -108t98.5 -291q0 -41 -2 -53h-712v-17q0 -194 89 -301.5t259 -107.5q119 0 200 58.5t109 176.5l47 -6q-31 -137 -128 -205.5t-234 -68.5q-189 0 -292.5 118.5t-103.5 333.5zM154 500h659v10q0 157 -83 255.5t-228 98.5 q-143 0 -237 -98.5t-111 -265.5z" />
<glyph unicode="f" horiz-adv-x="546" d="M41 846v45h141q27 0 27 27v120q0 138 58.5 207.5t160.5 69.5q96 0 154 -43l-23 -41q-53 39 -129 39q-172 0 -172 -232v-147h258v-45h-258v-846h-49v846h-168z" />
<glyph unicode="g" horiz-adv-x="964" d="M76 -143q0 181 227 227q-133 27 -133 129q0 125 180 143q-100 20 -160.5 90.5t-60.5 167.5q0 135 97 214t263 79q63 0 164 -8t203 -8h92v-45q-191 7 -282 14q151 -65 151 -242q0 -132 -99.5 -211t-256.5 -79h-51q-189 0 -189 -111q0 -102 223 -102h140q180 0 259 -53.5 t79 -165.5q0 -135 -127 -218q-128 -79 -320 -79q-170 0 -285 65q-114 68 -114 193zM131 -143q0 -99 95.5 -156t252.5 -57q174 0 281.5 68t107.5 182q0 94 -68 134t-229 40h-133q-307 0 -307 -211zM182 618q0 -105 78 -174q75 -69 211 -69q134 0 213.5 67.5t79.5 175.5 q0 115 -73 180.5t-210 65.5q-146 0 -221 -69q-78 -72 -78 -177z" />
<glyph unicode="h" horiz-adv-x="1005" d="M176 0v1307h49v-484q0 -13 -4 -157q36 117 123.5 179t192.5 62q313 0 313 -368v-539h-49v520q0 340 -262 340q-223 0 -314 -266v-594h-49z" />
<glyph unicode="i" horiz-adv-x="397" d="M152 1227q0 22 14.5 34t32.5 12.5t32.5 -12t14.5 -34.5q0 -21 -13 -37q-23 -24 -52 -10.5t-29 47.5zM174 0v891h49v-891h-49z" />
<glyph unicode="j" horiz-adv-x="405" d="M-74 -354l23 45q59 -41 121 -41q50 0 81 39.5t31 115.5v1086h49v-1077q0 -213 -168 -213q-75 0 -137 45zM158 1227q-1 34 34 44q32 9 51 -13q12 -12 9 -31q0 -51 -45 -51q-23 0 -36 14t-13 37z" />
<glyph unicode="k" horiz-adv-x="905" d="M176 0v1307h49v-949h2l564 533h63l-401 -381l280 -391q62 -86 117 -86q18 0 24 2l7 -47q-12 -4 -35 -4q-43 0 -79 25t-85 95l-266 373l-191 -182v-295h-49z" />
<glyph unicode="l" horiz-adv-x="397" d="M174 0v1307h49v-1307h-49z" />
<glyph unicode="m" horiz-adv-x="1613" d="M176 0v891h49v-70q0 -122 -2 -155q37 119 120 180t185 61q244 0 297 -243q40 118 127.5 180.5t192.5 62.5q313 0 313 -368v-539h-49v520q0 170 -68 255t-194 85q-220 0 -305 -266v-594h-49v514q0 170 -70 258t-195 88q-212 -3 -303 -266v-594h-49z" />
<glyph unicode="n" horiz-adv-x="1005" d="M176 0v891h49v-70q0 -129 -2 -164q37 123 122.5 186.5t191.5 63.5q313 0 313 -368v-539h-49v520q0 340 -264 340q-221 0 -312 -266v-594h-49z" />
<glyph unicode="o" horiz-adv-x="993" d="M98 449q0 204 109 331t287 127q180 0 292 -127q109 -127 109 -331q0 -203 -107 -334t-290 -131q-179 0 -289 131q-111 129 -111 334zM154 446q0 -182 96 -301q94 -116 254 -116q154 0 245 114t91 299q0 195 -92 307.5t-250 112.5q-159 0 -251.5 -112.5t-92.5 -303.5z" />
<glyph unicode="p" horiz-adv-x="1044" d="M176 -395v1286h49v-80q0 -14 -4 -174q37 124 129.5 197t214.5 73q165 0 273 -123q108 -126 108 -329q0 -221 -110 -346t-277 -125q-120 0 -205.5 62.5t-128.5 176.5v-618h-49zM223 432q0 -192 99 -297q98 -104 231 -104q153 0 246.5 110.5t93.5 298.5q0 193 -92 307.5 t-240 114.5q-147 0 -242 -114q-96 -119 -96 -316z" />
<glyph unicode="q" horiz-adv-x="1054" d="M98 440q0 219 113 344q114 123 283 123q117 0 204.5 -60t130.5 -167l7 211h45v-1286h-50v641q-38 -120 -132 -191t-212 -71q-164 0 -276 127q-113 125 -113 329zM152 455q0 -193 94.5 -308.5t245.5 -115.5q150 0 246 117t96 315q0 190 -99 295q-101 104 -235 104 q-155 0 -251.5 -111t-96.5 -296z" />
<glyph unicode="r" horiz-adv-x="610" d="M176 0v891h51v-70q0 -46 -4 -190q91 273 289 276q26 0 61 -6l-6 -49q-19 8 -63 8q-59 0 -133 -55q-44 -32 -83 -102t-63 -166v-537h-49z" />
<glyph unicode="s" horiz-adv-x="874" d="M104 254h50q9 -225 292 -225q120 0 191.5 52t71.5 148q0 88 -64.5 133.5t-202.5 71.5q-125 24 -211 70q-104 55 -104 174q0 100 82.5 164.5t226.5 64.5q145 0 231.5 -69t86.5 -195h-49q-5 104 -76 162.5t-195 58.5q-121 0 -187.5 -51t-66.5 -137q0 -105 121 -152 q57 -24 160 -45q153 -33 227 -87.5t74 -158.5q0 -117 -87.5 -183t-232.5 -66q-156 0 -247 67.5t-91 202.5z" />
<glyph unicode="t" horiz-adv-x="616" d="M39 846v45h143q25 0 25 22l12 252h39v-274h287v-45h-287v-639q0 -174 141 -174q87 0 138 63l28 -37q-63 -75 -170 -75q-186 0 -186 221v641h-170z" />
<glyph unicode="u" horiz-adv-x="997" d="M156 352v539h49v-518q0 -340 268 -340q110 0 180.5 57.5t120.5 185.5v615h49v-891h-49v70q0 66 6 139q-37 -110 -121.5 -167.5t-187.5 -57.5q-315 0 -315 368z" />
<glyph unicode="v" horiz-adv-x="839" d="M35 891h53l324 -828h8l334 828h51l-361 -891h-59z" />
<glyph unicode="w" horiz-adv-x="1429" d="M51 891h51l285 -836h12l291 836h66l276 -836h12l283 836h51l-303 -891h-74l-276 838h-6l-291 -838h-74z" />
<glyph unicode="x" horiz-adv-x="819" d="M25 0l354 453l-320 438h60l289 -395h4l301 395h57l-330 -430l348 -461h-59l-315 418h-6l-326 -418h-57z" />
<glyph unicode="y" horiz-adv-x="841" d="M33 891h53l332 -793h6l336 793h51l-365 -854v-266q0 -167 -141 -170h-8q-72 0 -127 55l29 43q54 -51 106 -51q94 0 94 127q0 197 -2 252z" />
<glyph unicode="z" horiz-adv-x="729" d="M45 0v49l582 797q-20 -2 -97 -2h-450v47h604v-45l-506 -694q-44 -64 -78 -103h588v-49h-643z" />
<glyph unicode="{" horiz-adv-x="751" d="M82 541v45h53q197 0 197 225v250q0 145 53 205.5t172 60.5h133v-43h-121q-110 0 -151 -49t-41 -180v-250q0 -212 -158 -242v-2q158 -21 158 -248v-241q0 -131 42 -182.5t150 -51.5h121v-43h-133q-119 0 -172 62t-53 209v245q0 110 -52 170t-145 60h-53z" />
<glyph unicode="|" horiz-adv-x="634" d="M297 -205v1532h41v-1532h-41z" />
<glyph unicode="}" horiz-adv-x="753" d="M61 -162h123q110 0 151.5 51.5t41.5 182.5v250q0 211 158 241v2q-158 21 -158 248v238q0 131 -42 182t-151 51h-123v43h136q119 0 172 -61.5t53 -208.5v-242q0 -110 51.5 -169.5t144.5 -59.5h54v-45h-54q-196 0 -196 -226v-249q0 -147 -53 -209t-172 -62h-136v43z" />
<glyph unicode="~" horiz-adv-x="970" d="M131 406q12 80 65.5 124.5t133.5 44.5q82 0 174 -65q92 -68 160 -68q130 0 151 127l45 -6q-24 -168 -198 -168q-81 0 -170 68q-92 65 -164 65q-134 0 -152 -129z" />
<glyph unicode="&#xa1;" horiz-adv-x="616" d="M252 922q0 26 15 41.5t40 15.5q58 0 58 -57q0 -25 -16 -40.5t-42 -15.5q-25 0 -40 15.5t-15 40.5zM283 283q0 216 10 356h31q10 -188 10 -354v-594h-51v592z" />
<glyph unicode="&#xa2;" horiz-adv-x="954" d="M109 485q0 204 100 329t264 136v236h41v-234q154 -5 245.5 -84t98.5 -215l-49 -6q-13 127 -90 193.5t-205 66.5v-833q234 6 293 221l47 -12q-64 -248 -340 -254v-197h-41v197q-168 11 -266 132.5t-98 323.5zM162 489q0 -179 85 -290.5t226 -122.5v829 q-148 -12 -229.5 -123.5t-81.5 -292.5z" />
<glyph unicode="&#xa3;" horiz-adv-x="1060" d="M61 0v47h23q130 0 207 92q78 90 78 211q0 70 -27 144h-272v45h254q-2 4 -12 26.5t-19 42.5q-21 46 -33 78q-31 80 -31 156q0 135 97 220t272 85q143 0 250 -72q102 -71 102 -201q0 -52 -14 -104l-47 4q8 65 8 76q0 135 -90 194q-89 56 -209 56q-149 0 -232 -66t-83 -192 q0 -59 30 -152q4 -10 37 -82q29 -62 31 -69h385v-45h-369q27 -74 27 -140q0 -101 -51.5 -185.5t-143.5 -121.5h750v-47h-918z" />
<glyph unicode="&#xa4;" horiz-adv-x="980" d="M113 172l129 129q-80 95 -80 223q0 125 76 213l-125 125l30 31l125 -123q95 80 224 80t219 -78l123 121l30 -31l-123 -123q78 -90 78 -215q0 -131 -82 -225l127 -127l-30 -31l-129 127q-90 -78 -213 -78q-132 0 -218 80l-131 -129zM213 522q0 -122 80 -205 q81 -84 199 -84q117 0 198 84q78 84 78 205t-78 205q-80 80 -198 80q-121 0 -200 -81t-79 -204z" />
<glyph unicode="&#xa5;" horiz-adv-x="1175" d="M84 1137h61l439 -594h8l440 594h60l-449 -605h340v-45h-373v-217h373v-45h-373v-225h-51v225h-371v45h371v217h-371v45h342z" />
<glyph unicode="&#xa6;" horiz-adv-x="634" d="M297 -205v606h41v-606h-41zM297 721v606h41v-606h-41z" />
<glyph unicode="&#xa7;" horiz-adv-x="989" d="M106 510q0 105 88.5 170t258.5 59q-168 36 -245 102t-77 163q0 110 96 183t262 73q176 0 284 -80.5t108 -235.5h-52q-8 100 -53.5 161t-117 85t-175.5 24q-132 0 -214.5 -54.5t-82.5 -149.5q0 -90 72 -150q72 -59 309 -112q162 -36 240 -98t78 -163q0 -103 -88 -168 t-258 -59q168 -36 244.5 -101.5t76.5 -162.5q0 -112 -95.5 -185t-262.5 -73q-176 0 -283.5 79.5t-107.5 237.5h51q11 -147 99.5 -209.5t246.5 -62.5q133 0 215 56t82 151q0 91 -72 151q-70 58 -309 111q-161 36 -239.5 98t-78.5 160zM160 510q0 -105 116 -160 q111 -57 271 -57q134 0 209 51.5t75 142.5q0 103 -114 162q-116 58 -273 58q-133 0 -208.5 -52.5t-75.5 -144.5z" />
<glyph unicode="&#xa8;" horiz-adv-x="819" d="M203 1163q0 31 25.5 44t51 0t25.5 -44q0 -51 -51 -51t-51 51zM522 1163q0 31 26 44t51.5 0t25.5 -44q0 -51 -52 -51q-51 0 -51 51z" />
<glyph unicode="&#xa9;" horiz-adv-x="1394" d="M57 623q0 275 183 458q181 181 458 181q279 0 461 -179q178 -181 178 -460q0 -281 -180 -461q-182 -182 -459 -182q-280 0 -460 180q-181 181 -181 463zM106 621q0 -267 166 -433q162 -165 426 -165t426 165q164 167 164 433q0 265 -164 432q-163 166 -426 166t-426 -166 q-166 -166 -166 -432zM365 621q0 170 93 275t242 105q130 0 210 -68t81 -183l-47 -5q-11 100 -74.5 155.5t-171.5 55.5q-129 0 -205.5 -88t-76.5 -241q0 -159 78.5 -249.5t210.5 -90.5q95 0 156 53t85 149l47 -10q-59 -237 -291 -237q-153 0 -245 103t-92 276z" />
<glyph unicode="&#xaa;" horiz-adv-x="747" d="M88 469v41h571v-41h-571zM100 823q0 85 66 130.5t184 45.5h176v56q0 166 -176 166q-173 0 -188 -140l-43 4q7 82 70.5 127t160.5 45q219 0 219 -206v-281q0 -68 35 -68q15 0 33 15l18 -29q-22 -22 -55 -22q-70 0 -70 92v65q-59 -157 -243 -157q-78 0 -132.5 43.5 t-54.5 113.5zM147 827q0 -55 39 -87.5t107 -32.5q110 0 172.5 66.5t62.5 189.5h-174q-207 0 -207 -136z" />
<glyph unicode="&#xab;" horiz-adv-x="878" d="M90 461v37l336 293l23 -39l-297 -267v-8l297 -266l-25 -37zM432 461v37l336 293l23 -39l-297 -267v-8l297 -266l-25 -37z" />
<glyph unicode="&#xac;" horiz-adv-x="970" d="M109 494v41h706v-299h-45v258h-661z" />
<glyph unicode="&#xad;" horiz-adv-x="534" d="M61 508v51h412v-51h-412z" />
<glyph unicode="&#xae;" horiz-adv-x="1394" d="M57 623q0 275 183 458q181 181 458 181q279 0 461 -179q178 -181 178 -460q0 -281 -180 -461q-182 -182 -459 -182q-280 0 -460 180q-181 181 -181 463zM106 621q0 -267 166 -433q162 -165 426 -165t426 165q164 167 164 433q0 265 -164 432q-163 166 -426 166t-426 -166 q-166 -166 -166 -432zM440 258v729h308q118 0 181.5 -48t63.5 -138q0 -88 -52.5 -135.5t-149.5 -47.5h-3v-2q72 -7 101.5 -44.5t40.5 -127.5q11 -99 20 -126t33 -27h6l2 -43q-4 -2 -20 -2q-43 0 -62 34.5t-26 131.5q-11 107 -45 144.5t-125 37.5h-224v-336h-49zM489 641h238 q211 0 211 158q0 145 -197 145h-252v-303z" />
<glyph unicode="&#xaf;" horiz-adv-x="819" d="M145 1130v41h529v-41h-529z" />
<glyph unicode="&#xb0;" horiz-adv-x="706" d="M102 1022q0 106 71 173t183 67q110 0 179 -64.5t69 -167.5q0 -109 -70.5 -176.5t-183.5 -67.5q-110 0 -179 66t-69 170zM154 1024q0 -87 55 -139q53 -56 139 -56q91 0 149 55.5t58 141.5q0 87 -55 139q-60 54 -146 54t-143 -54t-57 -141z" />
<glyph unicode="&#xb1;" horiz-adv-x="970" d="M109 0v41h753v-41h-753zM109 522v41h354v332h43v-332h354v-41h-354v-332h-43v332h-354z" />
<glyph unicode="&#xb2;" horiz-adv-x="638" d="M59 604v39l197 158q56 39 90 73q11 8 37 31q15 12 23 19t20 20.5t16 18.5q50 50 50 124q0 62 -45.5 98t-120.5 36q-197 0 -197 -168h-45q-1 102 61 154.5t181 52.5q100 0 157.5 -46.5t57.5 -126.5q0 -56 -29 -98q-39 -57 -72 -86q-17 -16 -102 -88q-29 -23 -59 -47 l-152 -121h432v-43h-500z" />
<glyph unicode="&#xb3;" horiz-adv-x="630" d="M66 760l43 2q9 -137 192 -137q86 0 137 39.5t51 107.5q0 141 -202 141q-21 0 -78 -8l-4 41q133 18 194.5 55t61.5 105q0 54 -45 85.5t-115 31.5q-86 0 -132 -38t-46 -93h-45q0 80 57 124t168 44q94 0 150.5 -40.5t56.5 -111.5q0 -147 -207 -168v-4q108 8 172 -31.5 t64 -126.5q0 -88 -68 -141q-66 -51 -170 -51t-168 43q-67 40 -67 131z" />
<glyph unicode="&#xb4;" horiz-adv-x="819" d="M262 1073l344 324l33 -41l-352 -309z" />
<glyph unicode="&#xb5;" horiz-adv-x="995" d="M164 -395v1286h49v-518q0 -340 262 -340q106 0 175.5 57.5t119.5 185.5v615h49v-891h-51v70q0 64 6 137q-36 -110 -118.5 -166.5t-182.5 -56.5q-183 0 -260 141v-520h-49z" />
<glyph unicode="&#xb6;" horiz-adv-x="1075" d="M72 854q0 185 128 286t365 101h449v-45h-410v-1483h-49v762q-483 0 -483 379zM805 -287v1346h49v-1346h-49z" />
<glyph unicode="&#xb7;" horiz-adv-x="440" d="M164 532q0 25 15.5 40.5t41.5 15.5q25 0 40 -15.5t15 -40.5q0 -26 -15 -41.5t-40 -15.5q-57 0 -57 57z" />
<glyph unicode="&#xb8;" horiz-adv-x="819" d="M297 -279l27 33q33 -45 98 -45q82 0 82 70q0 74 -109 74q-27 0 -61 -9l61 176h39l-43 -131q73 5 119.5 -24t46.5 -82q0 -52 -36.5 -84.5t-98.5 -32.5q-79 0 -125 55z" />
<glyph unicode="&#xb9;" horiz-adv-x="438" d="M41 1137l195 104h45v-635h-45v584l-179 -90z" />
<glyph unicode="&#xba;" horiz-adv-x="724" d="M90 965q0 129 76 210.5t199 81.5q121 0 195.5 -80.5t74.5 -209.5q0 -135 -75.5 -218t-199.5 -83q-121 0 -195.5 82.5t-74.5 216.5zM98 469v41h527v-41h-527zM137 965q0 -115 62 -187.5t159 -72.5q104 0 167 72.5t63 189.5q0 115 -61.5 184.5t-161.5 69.5 q-103 0 -165.5 -70.5t-62.5 -185.5z" />
<glyph unicode="&#xbb;" horiz-adv-x="878" d="M90 213l297 266v8l-297 267l25 37l334 -287v-37l-336 -293zM432 213l297 266v8l-297 267l25 37l334 -287v-37l-336 -293z" />
<glyph unicode="&#xbc;" horiz-adv-x="1439" d="M61 1137l195 104h45v-635h-45v584l-178 -90zM240 0l925 1239h49l-925 -1239h-49zM842 195v43l354 397h53v-402h131v-38h-131v-195h-43v195h-364zM897 233h309v349h-4z" />
<glyph unicode="&#xbd;" horiz-adv-x="1484" d="M66 1137l194 104h45v-635h-45v584l-178 -90zM203 0l925 1239h50l-926 -1239h-49zM883 0v39l196 158q56 39 90 73q11 8 37 31q25 19 60 57q49 49 49 125q0 62 -45.5 97.5t-120.5 35.5q-197 0 -197 -167h-45q-1 102 61 154t181 52q100 0 157.5 -46t57.5 -126q0 -56 -29 -98 q-4 -6 -12 -17.5t-11.5 -17t-11 -14.5t-16 -17.5t-20.5 -19.5q-18 -16 -30.5 -27t-32 -27t-40.5 -34q-29 -23 -59 -47l-152 -121h432v-43h-499z" />
<glyph unicode="&#xbe;" horiz-adv-x="1501" d="M86 760l43 2q9 -137 193 -137q86 0 137 39.5t51 107.5q0 141 -203 141q-21 0 -78 -8l-4 41q133 18 194.5 55t61.5 105q0 54 -45 85.5t-114 31.5q-86 0 -132.5 -38t-46.5 -93h-45q0 79 57.5 123.5t168.5 44.5q94 0 150 -40.5t56 -111.5q0 -147 -206 -168v-4 q108 8 171.5 -31.5t63.5 -126.5q0 -89 -67 -141q-66 -51 -170 -51t-168 43q-68 41 -68 131zM301 0l926 1239h49l-926 -1239h-49zM903 195v43l354 397h54v-402h131v-38h-131v-195h-43v195h-365zM958 233h310v349h-4z" />
<glyph unicode="&#xbf;" horiz-adv-x="968" d="M80 -47q0 141 106 223q53 39 99 63t137 62q134 56 184.5 98t50.5 99t-39 90q-26 21 -64 28.5t-82 -4.5t-79 -43l-31 37q64 58 156 58q89 0 141 -46q50 -47 50 -114q0 -75 -59.5 -129t-209.5 -117q-111 -49 -127 -57q-29 -14 -92 -58q-48 -36 -68 -78.5t-20 -103.5 q0 -119 85 -184.5t247 -65.5q174 0 270 71.5t96 201.5q0 58 -20 102l47 18q27 -47 27 -120q0 -152 -113 -236t-311 -84q-181 0 -281 77t-100 212zM467 922q0 26 15 41.5t40 15.5q58 0 58 -57q0 -25 -16 -40.5t-42 -15.5q-25 0 -40 15.5t-15 40.5z" />
<glyph unicode="&#xc0;" horiz-adv-x="1077" d="M33 0l469 1241h76l466 -1241h-55l-166 442h-571l-168 -442h-51zM270 492h535l-260 696h-13zM342 1657l35 43l330 -320l-27 -26z" />
<glyph unicode="&#xc1;" horiz-adv-x="1077" d="M33 0l469 1241h76l466 -1241h-55l-166 442h-571l-168 -442h-51zM270 492h535l-260 696h-13zM393 1378l344 324l33 -41l-352 -309z" />
<glyph unicode="&#xc2;" horiz-adv-x="1077" d="M33 0l469 1241h76l466 -1241h-55l-166 442h-571l-168 -442h-51zM270 492h535l-260 696h-13zM289 1366l221 309h61l220 -305l-35 -16l-213 274h-8l-211 -276z" />
<glyph unicode="&#xc3;" horiz-adv-x="1077" d="M33 0l469 1241h76l466 -1241h-55l-166 442h-571l-168 -442h-51zM250 1391q0 81 39.5 128.5t105.5 47.5q75 0 154 -64q75 -63 137 -63q49 0 77 35.5t28 97.5h40q0 -84 -38.5 -130t-106.5 -46q-78 0 -156 63q-79 64 -131 64q-53 0 -80.5 -35.5t-27.5 -97.5h-41zM270 492 h535l-260 696h-13z" />
<glyph unicode="&#xc4;" horiz-adv-x="1077" d="M33 0l469 1241h76l466 -1241h-55l-166 442h-571l-168 -442h-51zM270 492h535l-260 696h-13zM334 1468q0 31 25.5 44t51 0t25.5 -44q0 -51 -51 -51t-51 51zM653 1468q0 31 25.5 44t51.5 0t26 -44q0 -51 -51 -51q-52 0 -52 51z" />
<glyph unicode="&#xc5;" horiz-adv-x="1077" d="M33 0l469 1241h76l466 -1241h-55l-166 442h-571l-168 -442h-51zM270 492h535l-260 696h-13zM379 1516q0 69 46.5 112t121.5 43q72 0 117 -41.5t45 -107.5q0 -72 -45.5 -115t-120.5 -43q-72 0 -118 43t-46 109zM428.5 1540.5q-5.5 -36.5 6 -68.5t40.5 -53.5t66 -17.5 q55 0 88 32.5t33 86.5q4 37 -17 66t-53.5 40.5t-70 6t-62.5 -30.5t-30.5 -61.5z" />
<glyph unicode="&#xc6;" horiz-adv-x="1658" d="M20 0l615 1241h962v-49h-702v-537h600v-49h-600v-557h707v-49h-758v461h-543l-229 -461h-52zM326 510h518v682h-178z" />
<glyph unicode="&#xc7;" horiz-adv-x="1265" d="M106 610q0 295 158 473q157 177 408 177q218 0 348 -114.5t147 -328.5l-49 -4q-40 399 -448 399q-231 0 -367 -161q-141 -163 -141 -433q0 -281 135 -433t375 -152q178 0 292 92.5t146 265.5l47 -6q-25 -181 -151.5 -289t-325.5 -112l-31 -95q73 5 119.5 -24t46.5 -82 q0 -52 -36.5 -84.5t-98.5 -32.5q-79 0 -125 55l27 33q33 -45 98 -45q82 0 82 70q0 74 -109 74q-27 0 -61 -9l49 140q-248 11 -391.5 175.5t-143.5 450.5z" />
<glyph unicode="&#xc8;" horiz-adv-x="999" d="M178 0v1241h754v-49h-703v-537h600v-49h-600v-557h707v-49h-758zM373 1657l35 43l329 -320l-26 -26z" />
<glyph unicode="&#xc9;" horiz-adv-x="999" d="M178 0v1241h754v-49h-703v-537h600v-49h-600v-557h707v-49h-758zM424 1378l344 324l33 -41l-352 -309z" />
<glyph unicode="&#xca;" horiz-adv-x="999" d="M178 0v1241h754v-49h-703v-537h600v-49h-600v-557h707v-49h-758zM319 1366l222 309h61l219 -305l-35 -16l-213 274h-8l-211 -276z" />
<glyph unicode="&#xcb;" horiz-adv-x="999" d="M178 0v1241h754v-49h-703v-537h600v-49h-600v-557h707v-49h-758zM365 1468q0 31 25.5 44t51 0t25.5 -44q0 -51 -51 -51t-51 51zM684 1468q0 31 25.5 44t51 0t25.5 -44q0 -51 -51 -51t-51 51z" />
<glyph unicode="&#xcc;" horiz-adv-x="407" d="M6 1657l35 43l330 -320l-27 -26zM178 0v1241h51v-1241h-51z" />
<glyph unicode="&#xcd;" horiz-adv-x="407" d="M57 1378l344 324l33 -41l-352 -309zM178 0v1241h51v-1241h-51z" />
<glyph unicode="&#xce;" horiz-adv-x="407" d="M-47 1366l221 309h62l219 -305l-35 -16l-213 274h-8l-211 -276zM178 0v1241h51v-1241h-51z" />
<glyph unicode="&#xcf;" horiz-adv-x="407" d="M-2 1468q0 31 25.5 44t51 0t25.5 -44q0 -51 -51 -51t-51 51zM178 0v1241h51v-1241h-51zM317 1468q0 31 25.5 44t51.5 0t26 -44q0 -51 -51 -51q-52 0 -52 51z" />
<glyph unicode="&#xd0;" horiz-adv-x="1251" d="M35 608v45h143v588h426q240 0 402 -149q159 -150 159 -435q0 -291 -161 -473q-163 -184 -418 -184h-408v608h-143zM229 47h344q247 0 390 168q145 168 145 438q0 255 -138 398t-374 143h-367v-541h385v-45h-385v-561z" />
<glyph unicode="&#xd1;" horiz-adv-x="1257" d="M178 0v1241h66l667 -987q11 -19 58 -86.5t55 -79.5h6v1153h49v-1241h-57l-791 1169h-4v-1169h-49zM324 1391q0 81 39.5 128.5t105.5 47.5q75 0 154 -64q75 -63 137 -63q49 0 76.5 35.5t27.5 97.5h41q0 -84 -38.5 -130t-106.5 -46q-78 0 -156 63q-79 64 -131 64 q-53 0 -80.5 -35.5t-27.5 -97.5h-41z" />
<glyph unicode="&#xd2;" d="M104 625q0 286 168 460q166 175 439 175q249 0 413 -173q160 -177 160 -456q0 -293 -164 -469q-163 -178 -434 -178q-263 0 -422 176q-160 177 -160 465zM160 625q0 -265 145 -430q144 -164 379 -164q247 0 397 164q148 165 148 434q0 265 -144 424t-378 159 q-251 0 -398 -159q-149 -162 -149 -428zM512 1657l35 43l330 -320l-27 -26z" />
<glyph unicode="&#xd3;" d="M104 625q0 286 168 460q166 175 439 175q249 0 413 -173q160 -177 160 -456q0 -293 -164 -469q-163 -178 -434 -178q-263 0 -422 176q-160 177 -160 465zM160 625q0 -265 145 -430q144 -164 379 -164q247 0 397 164q148 165 148 434q0 265 -144 424t-378 159 q-251 0 -398 -159q-149 -162 -149 -428zM563 1378l344 324l33 -41l-352 -309z" />
<glyph unicode="&#xd4;" d="M104 625q0 286 168 460q166 175 439 175q249 0 413 -173q160 -177 160 -456q0 -293 -164 -469q-163 -178 -434 -178q-263 0 -422 176q-160 177 -160 465zM160 625q0 -265 145 -430q144 -164 379 -164q247 0 397 164q148 165 148 434q0 265 -144 424t-378 159 q-251 0 -398 -159q-149 -162 -149 -428zM459 1366l221 309h61l220 -305l-35 -16l-213 274h-8l-211 -276z" />
<glyph unicode="&#xd5;" d="M104 625q0 286 168 460q166 175 439 175q249 0 413 -173q160 -177 160 -456q0 -293 -164 -469q-163 -178 -434 -178q-263 0 -422 176q-160 177 -160 465zM160 625q0 -265 145 -430q144 -164 379 -164q247 0 397 164q148 165 148 434q0 265 -144 424t-378 159 q-251 0 -398 -159q-149 -162 -149 -428zM420 1391q0 81 39.5 128.5t105.5 47.5q75 0 154 -64q75 -63 137 -63q49 0 77 35.5t28 97.5h40q0 -84 -38.5 -130t-106.5 -46q-78 0 -156 63q-79 64 -131 64q-53 0 -80.5 -35.5t-27.5 -97.5h-41z" />
<glyph unicode="&#xd6;" d="M104 625q0 286 168 460q166 175 439 175q249 0 413 -173q160 -177 160 -456q0 -293 -164 -469q-163 -178 -434 -178q-263 0 -422 176q-160 177 -160 465zM160 625q0 -265 145 -430q144 -164 379 -164q247 0 397 164q148 165 148 434q0 265 -144 424t-378 159 q-251 0 -398 -159q-149 -162 -149 -428zM504 1468q0 31 25.5 44t51 0t25.5 -44q0 -51 -51 -51t-51 51zM823 1468q0 31 25.5 44t51.5 0t26 -44q0 -51 -52 -51q-51 0 -51 51z" />
<glyph unicode="&#xd7;" horiz-adv-x="970" d="M170 786l29 29l286 -287l287 287l29 -29l-287 -286l285 -285l-29 -29l-285 285l-284 -285l-29 29l285 285z" />
<glyph unicode="&#xd8;" d="M104 625q0 286 168 460q166 175 439 175q239 0 393 -154l143 156l33 -29l-145 -158q149 -174 149 -444q0 -293 -164 -469q-163 -178 -434 -178q-248 0 -405 157l-142 -153l-33 28l146 158q-148 177 -148 451zM160 625q0 -247 127 -412l784 856q-137 143 -364 143 q-251 0 -398 -159q-149 -162 -149 -428zM315 180q143 -149 369 -149q247 0 397 164q148 165 148 434q0 251 -129 407z" />
<glyph unicode="&#xd9;" horiz-adv-x="1204" d="M168 432v809h51v-790q0 -207 101.5 -312.5t293.5 -105.5q173 0 272 105.5t99 293.5v809h51v-792q0 -222 -112 -343.5t-314 -121.5q-212 0 -327 115t-115 333zM406 1657l34 43l330 -320l-27 -26z" />
<glyph unicode="&#xda;" horiz-adv-x="1204" d="M168 432v809h51v-790q0 -207 101.5 -312.5t293.5 -105.5q173 0 272 105.5t99 293.5v809h51v-792q0 -222 -112 -343.5t-314 -121.5q-212 0 -327 115t-115 333zM457 1378l344 324l33 -41l-353 -309z" />
<glyph unicode="&#xdb;" horiz-adv-x="1204" d="M168 432v809h51v-790q0 -207 101.5 -312.5t293.5 -105.5q173 0 272 105.5t99 293.5v809h51v-792q0 -222 -112 -343.5t-314 -121.5q-212 0 -327 115t-115 333zM352 1366l221 309h62l219 -305l-35 -16l-213 274h-8l-211 -276z" />
<glyph unicode="&#xdc;" horiz-adv-x="1204" d="M168 432v809h51v-790q0 -207 101.5 -312.5t293.5 -105.5q173 0 272 105.5t99 293.5v809h51v-792q0 -222 -112 -343.5t-314 -121.5q-212 0 -327 115t-115 333zM397 1468q0 31 25.5 44t51.5 0t26 -44q0 -51 -51 -51q-52 0 -52 51zM717 1468q0 31 25.5 44t51 0t25.5 -44 q0 -51 -51 -51t-51 51z" />
<glyph unicode="&#xdd;" horiz-adv-x="1038" d="M14 1241h62l440 -688h6l443 688h59l-481 -747v-494h-51v496zM373 1378l344 324l33 -41l-353 -309z" />
<glyph unicode="&#xde;" horiz-adv-x="1021" d="M178 0v1241h51v-260h373q381 0 381 -315q0 -166 -101.5 -257.5t-289.5 -91.5h-363v-317h-51zM229 367h379q152 0 235 78.5t83 218.5q0 130 -82.5 199t-235.5 69h-379v-565z" />
<glyph unicode="&#xdf;" horiz-adv-x="1142" d="M45 846v45h139q29 0 29 24v17q0 193 110 288t308 95q156 0 254 -68t98 -172q0 -101 -56 -155.5t-206 -106.5q-118 -40 -161.5 -75.5t-43.5 -100.5q0 -50 35.5 -84t89.5 -51q67 -22 127 -33q4 -1 12 -2t11 -2q147 -32 219.5 -86t72.5 -158q0 -111 -86 -174t-229 -63 q-149 0 -237.5 69t-88.5 205h52q9 -227 280 -227q115 0 185.5 48t70.5 134q0 87 -62 133.5t-188 71.5q-76 14 -116 25.5t-95 35.5q-106 44 -106 156q0 80 57.5 129.5t190.5 93.5q123 43 170 86t47 125q0 91 -80 146t-215 55q-371 0 -371 -344v-926h-49v846h-168z" />
<glyph unicode="&#xe0;" horiz-adv-x="942" d="M106 223q0 256 347 256h274v133q0 252 -256 252q-254 0 -281 -231h-49q27 274 330 274q305 0 305 -307v-463q0 -60 14 -84t46 -24q23 0 41 12l14 -41q-22 -16 -60 -16q-100 0 -100 143v115q-79 -258 -344 -258q-125 0 -203 63t-78 176zM162 231q0 -99 65 -151.5 t172 -52.5q133 0 232 102q98 101 98 307h-264q-156 -2 -229.5 -51.5t-73.5 -153.5zM266 1329l35 43l330 -319l-27 -27z" />
<glyph unicode="&#xe1;" horiz-adv-x="942" d="M106 223q0 256 347 256h274v133q0 252 -256 252q-254 0 -281 -231h-49q27 274 330 274q305 0 305 -307v-463q0 -60 14 -84t46 -24q23 0 41 12l14 -41q-22 -16 -60 -16q-100 0 -100 143v115q-79 -258 -344 -258q-125 0 -203 63t-78 176zM162 231q0 -99 65 -151.5 t172 -52.5q133 0 232 102q98 101 98 307h-264q-156 -2 -229.5 -51.5t-73.5 -153.5zM317 1051l345 323l32 -41l-352 -309z" />
<glyph unicode="&#xe2;" horiz-adv-x="942" d="M106 223q0 256 347 256h274v133q0 252 -256 252q-254 0 -281 -231h-49q27 274 330 274q305 0 305 -307v-463q0 -60 14 -84t46 -24q23 0 41 12l14 -41q-22 -16 -60 -16q-100 0 -100 143v115q-79 -258 -344 -258q-125 0 -203 63t-78 176zM162 231q0 -99 65 -151.5 t172 -52.5q133 0 232 102q98 101 98 307h-264q-156 -2 -229.5 -51.5t-73.5 -153.5zM213 1038l221 310h62l219 -306l-35 -16l-213 274h-8l-211 -276z" />
<glyph unicode="&#xe3;" horiz-adv-x="942" d="M106 223q0 256 347 256h274v133q0 252 -256 252q-254 0 -281 -231h-49q27 274 330 274q305 0 305 -307v-463q0 -60 14 -84t46 -24q23 0 41 12l14 -41q-22 -16 -60 -16q-100 0 -100 143v115q-79 -258 -344 -258q-125 0 -203 63t-78 176zM162 231q0 -99 65 -151.5 t172 -52.5q133 0 232 102q98 101 98 307h-264q-156 -2 -229.5 -51.5t-73.5 -153.5zM174 1063q0 81 39.5 128.5t105.5 47.5q76 0 154 -63q76 -64 137 -64q49 0 77 35.5t28 97.5h41q0 -84 -39 -130t-107 -46q-76 0 -155 64q-78 63 -131 63t-81 -36t-28 -97h-41z" />
<glyph unicode="&#xe4;" horiz-adv-x="942" d="M106 223q0 256 347 256h274v133q0 252 -256 252q-254 0 -281 -231h-49q27 274 330 274q305 0 305 -307v-463q0 -60 14 -84t46 -24q23 0 41 12l14 -41q-22 -16 -60 -16q-100 0 -100 143v115q-79 -258 -344 -258q-125 0 -203 63t-78 176zM162 231q0 -99 65 -151.5 t172 -52.5q133 0 232 102q98 101 98 307h-264q-156 -2 -229.5 -51.5t-73.5 -153.5zM258 1141q0 31 25.5 44t51 0t25.5 -44q0 -51 -51 -51t-51 51zM578 1141q0 31 25.5 44t51 0t25.5 -44q0 -51 -51 -51t-51 51z" />
<glyph unicode="&#xe5;" horiz-adv-x="942" d="M106 223q0 256 347 256h274v133q0 252 -256 252q-254 0 -281 -231h-49q27 274 330 274q305 0 305 -307v-463q0 -60 14 -84t46 -24q23 0 41 12l14 -41q-22 -16 -60 -16q-100 0 -100 143v115q-79 -258 -344 -258q-125 0 -203 63t-78 176zM162 231q0 -99 65 -151.5 t172 -52.5q133 0 232 102q98 101 98 307h-264q-156 -2 -229.5 -51.5t-73.5 -153.5zM303 1188q0 69 46.5 112t121.5 43q72 0 117 -41.5t45 -107.5q0 -72 -45.5 -115t-120.5 -43q-72 0 -118 43t-46 109zM352.5 1212.5q-5.5 -36.5 6 -68.5t40.5 -53.5t66 -17.5q55 0 88 32.5 t33 86.5q4 37 -17 66t-53.5 40.5t-70 6t-62.5 -30.5t-30.5 -61.5z" />
<glyph unicode="&#xe6;" horiz-adv-x="1568" d="M106 223q0 256 347 256h274v129q0 127 -66.5 191.5t-189.5 64.5q-254 0 -281 -231h-49q27 274 330 274q272 0 299 -250q44 120 134 185t208 65q164 0 259 -107.5t95 -291.5q0 -41 -2 -53h-688v-17q0 -193 86 -301t250 -108q239 0 297 235l47 -6q-31 -140 -123 -207 t-227 -67q-137 0 -233.5 76t-122.5 206q-76 -282 -363 -282q-125 0 -203 63t-78 176zM162 231q0 -99 65 -151.5t172 -52.5q137 0 232 102q96 104 96 307h-262q-156 -2 -229.5 -51.5t-73.5 -153.5zM778 500h635v10q0 163 -80 258.5t-221 95.5q-140 0 -230.5 -98.5 t-103.5 -265.5z" />
<glyph unicode="&#xe7;" horiz-adv-x="919" d="M98 438q0 215 109 342t282 127q156 0 251 -86t102 -237l-51 -2q-12 138 -91.5 210t-214.5 72q-152 0 -242.5 -117.5t-90.5 -308.5q0 -195 90 -302t245 -107q237 0 301 241l48 -8q-64 -272 -336 -278l-31 -95q73 5 119.5 -24t46.5 -82q0 -52 -36.5 -84.5t-98.5 -32.5 q-79 0 -125 55l26 33q33 -45 99 -45q82 0 82 70q0 74 -109 74q-27 0 -61 -9l49 140q-170 8 -266.5 125t-96.5 329z" />
<glyph unicode="&#xe8;" horiz-adv-x="968" d="M98 436q0 209 113 340t291 131q167 0 265.5 -108t98.5 -291q0 -41 -2 -53h-712v-17q0 -194 89 -301.5t259 -107.5q119 0 200 58.5t109 176.5l47 -6q-31 -137 -128 -205.5t-234 -68.5q-189 0 -292.5 118.5t-103.5 333.5zM154 500h659v10q0 157 -83 255.5t-228 98.5 q-143 0 -237 -98.5t-111 -265.5zM285 1329l34 43l330 -319l-26 -27z" />
<glyph unicode="&#xe9;" horiz-adv-x="968" d="M98 436q0 209 113 340t291 131q167 0 265.5 -108t98.5 -291q0 -41 -2 -53h-712v-17q0 -194 89 -301.5t259 -107.5q119 0 200 58.5t109 176.5l47 -6q-31 -137 -128 -205.5t-234 -68.5q-189 0 -292.5 118.5t-103.5 333.5zM154 500h659v10q0 157 -83 255.5t-228 98.5 q-143 0 -237 -98.5t-111 -265.5zM336 1051l344 323l33 -41l-353 -309z" />
<glyph unicode="&#xea;" horiz-adv-x="968" d="M98 436q0 209 113 340t291 131q167 0 265.5 -108t98.5 -291q0 -41 -2 -53h-712v-17q0 -194 89 -301.5t259 -107.5q119 0 200 58.5t109 176.5l47 -6q-31 -137 -128 -205.5t-234 -68.5q-189 0 -292.5 118.5t-103.5 333.5zM154 500h659v10q0 157 -83 255.5t-228 98.5 q-143 0 -237 -98.5t-111 -265.5zM231 1038l222 310h61l219 -306l-35 -16l-213 274h-8l-211 -276z" />
<glyph unicode="&#xeb;" horiz-adv-x="968" d="M98 436q0 209 113 340t291 131q167 0 265.5 -108t98.5 -291q0 -41 -2 -53h-712v-17q0 -194 89 -301.5t259 -107.5q119 0 200 58.5t109 176.5l47 -6q-31 -137 -128 -205.5t-234 -68.5q-189 0 -292.5 118.5t-103.5 333.5zM154 500h659v10q0 157 -83 255.5t-228 98.5 q-143 0 -237 -98.5t-111 -265.5zM276 1141q0 31 26 44t51.5 0t25.5 -44q0 -51 -51 -51q-52 0 -52 51zM596 1141q0 31 25.5 44t51 0t25.5 -44q0 -51 -51 -51t-51 51z" />
<glyph unicode="&#xec;" horiz-adv-x="397" d="M0 1329l35 43l330 -319l-27 -27zM174 0v891h49v-891h-49z" />
<glyph unicode="&#xed;" horiz-adv-x="397" d="M51 1051l344 323l33 -41l-352 -309zM174 0v891h49v-891h-49z" />
<glyph unicode="&#xee;" horiz-adv-x="397" d="M-53 1038l221 310h61l220 -306l-35 -16l-213 274h-8l-211 -276zM174 0v891h49v-891h-49z" />
<glyph unicode="&#xef;" horiz-adv-x="397" d="M-8 1141q0 31 25.5 44t51 0t25.5 -44q0 -51 -51 -51t-51 51zM174 0v891h49v-891h-49zM311 1141q0 31 25.5 44t51.5 0t26 -44q0 -51 -52 -51q-51 0 -51 51z" />
<glyph unicode="&#xf0;" horiz-adv-x="1019" d="M98 449q0 206 113 331q115 127 295 127q117 0 208.5 -56.5t135.5 -160.5q-44 324 -254 473l-268 -157l-23 36l252 148q-147 84 -344 96l6 41q224 -12 381 -113l193 113l24 -33l-180 -106q281 -216 281 -699q0 -241 -107.5 -373t-300.5 -132q-184 0 -297 131 q-115 130 -115 334zM154 446q0 -185 98 -301t264 -116q163 0 256 118q92 121 92 316q0 199 -106 299t-248 100q-164 0 -260 -112.5t-96 -303.5z" />
<glyph unicode="&#xf1;" horiz-adv-x="1005" d="M176 0v891h49v-70q0 -129 -2 -164q37 123 122.5 186.5t191.5 63.5q313 0 313 -368v-539h-49v520q0 340 -264 340q-221 0 -312 -266v-594h-49zM231 1063q0 81 40 128.5t106 47.5q75 0 153 -63q76 -64 138 -64q49 0 76.5 35.5t27.5 97.5h41q0 -84 -38.5 -130t-106.5 -46 q-77 0 -156 64q-78 63 -131 63t-81 -36t-28 -97h-41z" />
<glyph unicode="&#xf2;" horiz-adv-x="993" d="M98 449q0 204 109 331t287 127q180 0 292 -127q109 -127 109 -331q0 -203 -107 -334t-290 -131q-179 0 -289 131q-111 129 -111 334zM154 446q0 -182 96 -301q94 -116 254 -116q154 0 245 114t91 299q0 195 -92 307.5t-250 112.5q-159 0 -251.5 -112.5t-92.5 -303.5z M315 1329l35 43l330 -319l-27 -27z" />
<glyph unicode="&#xf3;" horiz-adv-x="993" d="M98 449q0 204 109 331t287 127q180 0 292 -127q109 -127 109 -331q0 -203 -107 -334t-290 -131q-179 0 -289 131q-111 129 -111 334zM154 446q0 -182 96 -301q94 -116 254 -116q154 0 245 114t91 299q0 195 -92 307.5t-250 112.5q-159 0 -251.5 -112.5t-92.5 -303.5z M367 1051l344 323l32 -41l-352 -309z" />
<glyph unicode="&#xf4;" horiz-adv-x="993" d="M98 449q0 204 109 331t287 127q180 0 292 -127q109 -127 109 -331q0 -203 -107 -334t-290 -131q-179 0 -289 131q-111 129 -111 334zM154 446q0 -182 96 -301q94 -116 254 -116q154 0 245 114t91 299q0 195 -92 307.5t-250 112.5q-159 0 -251.5 -112.5t-92.5 -303.5z M262 1038l221 310h62l219 -306l-35 -16l-213 274h-8l-211 -276z" />
<glyph unicode="&#xf5;" horiz-adv-x="993" d="M98 449q0 204 109 331t287 127q180 0 292 -127q109 -127 109 -331q0 -203 -107 -334t-290 -131q-179 0 -289 131q-111 129 -111 334zM154 446q0 -182 96 -301q94 -116 254 -116q154 0 245 114t91 299q0 195 -92 307.5t-250 112.5q-159 0 -251.5 -112.5t-92.5 -303.5z M223 1063q0 81 40 128.5t106 47.5q75 0 153 -63q76 -64 137 -64q49 0 77 35.5t28 97.5h41q0 -84 -39 -130t-107 -46q-76 0 -155 64q-78 63 -131 63t-81 -36t-28 -97h-41z" />
<glyph unicode="&#xf6;" horiz-adv-x="993" d="M98 449q0 204 109 331t287 127q180 0 292 -127q109 -127 109 -331q0 -203 -107 -334t-290 -131q-179 0 -289 131q-111 129 -111 334zM154 446q0 -182 96 -301q94 -116 254 -116q154 0 245 114t91 299q0 195 -92 307.5t-250 112.5q-159 0 -251.5 -112.5t-92.5 -303.5z M307 1141q0 31 25.5 44t51.5 0t26 -44q0 -51 -52 -51q-51 0 -51 51zM627 1141q0 31 25.5 44t51 0t25.5 -44q0 -51 -51 -51t-51 51z" />
<glyph unicode="&#xf7;" horiz-adv-x="970" d="M109 494v41h753v-41h-753zM424 209q0 25 16 40t41 15q26 0 42 -15t16 -40q0 -57 -58 -57q-25 0 -41 15.5t-16 41.5zM426 823q0 25 16 40.5t41 15.5q26 0 42 -15.5t16 -40.5q0 -57 -58 -57q-25 0 -41 15.5t-16 41.5z" />
<glyph unicode="&#xf8;" horiz-adv-x="1001" d="M98 449q0 205 111 331q109 127 289 127q179 0 290 -123l103 119l31 -26l-107 -123q88 -122 88 -305q0 -202 -108 -334q-107 -131 -293 -131q-156 0 -262 100l-103 -119l-31 27l105 121q-113 128 -113 336zM154 446q0 -175 90 -294l512 596q-92 114 -254 114 q-160 0 -254 -112.5t-94 -303.5zM272 121q95 -92 236 -92q157 0 248 116q92 115 92 297q0 162 -68 271z" />
<glyph unicode="&#xf9;" horiz-adv-x="997" d="M156 352v539h49v-518q0 -340 268 -340q110 0 180.5 57.5t120.5 185.5v615h49v-891h-49v70q0 66 6 139q-37 -110 -121.5 -167.5t-187.5 -57.5q-315 0 -315 368zM293 1329l35 43l329 -319l-26 -27z" />
<glyph unicode="&#xfa;" horiz-adv-x="997" d="M156 352v539h49v-518q0 -340 268 -340q110 0 180.5 57.5t120.5 185.5v615h49v-891h-49v70q0 66 6 139q-37 -110 -121.5 -167.5t-187.5 -57.5q-315 0 -315 368zM344 1051l344 323l33 -41l-352 -309z" />
<glyph unicode="&#xfb;" horiz-adv-x="997" d="M156 352v539h49v-518q0 -340 268 -340q110 0 180.5 57.5t120.5 185.5v615h49v-891h-49v70q0 66 6 139q-37 -110 -121.5 -167.5t-187.5 -57.5q-315 0 -315 368zM240 1038l221 310h61l219 -306l-34 -16l-213 274h-9l-211 -276z" />
<glyph unicode="&#xfc;" horiz-adv-x="997" d="M156 352v539h49v-518q0 -340 268 -340q110 0 180.5 57.5t120.5 185.5v615h49v-891h-49v70q0 66 6 139q-37 -110 -121.5 -167.5t-187.5 -57.5q-315 0 -315 368zM285 1141q0 31 25.5 44t51 0t25.5 -44q0 -51 -51 -51t-51 51zM604 1141q0 31 26 44t51.5 0t25.5 -44 q0 -51 -52 -51q-51 0 -51 51z" />
<glyph unicode="&#xfd;" horiz-adv-x="841" d="M33 891h53l332 -793h6l336 793h51l-365 -854v-266q0 -167 -141 -170q-77 -3 -135 55l29 43q54 -51 106 -51q94 0 94 127q0 197 -2 252zM274 1051l344 323l33 -41l-352 -309z" />
<glyph unicode="&#xfe;" horiz-adv-x="1054" d="M174 -395v1722h49v-450q0 -22 -4 -240q35 125 128 197.5t220 72.5q165 0 279 -123q110 -125 110 -329q0 -222 -112 -346q-113 -125 -283 -125q-247 0 -338 235v-614h-49zM221 430q0 -193 101 -297q98 -104 233 -104q155 0 251.5 112t96.5 299q0 193 -94 306.5t-248 113.5 q-147 0 -242 -115q-98 -113 -98 -315z" />
<glyph unicode="&#xff;" horiz-adv-x="841" d="M33 891h53l332 -793h6l336 793h51l-365 -854v-266q0 -167 -141 -170q-77 -3 -135 55l29 43q54 -51 106 -51q94 0 94 127q0 197 -2 252zM215 1141q0 31 25.5 44t51 0t25.5 -44q0 -51 -51 -51t-51 51zM535 1141q0 31 25.5 44t51 0t25.5 -44q0 -51 -51 -51t-51 51z" />
<glyph unicode="&#x152;" horiz-adv-x="1798" d="M104 625q0 281 166 450q166 166 441 166h1026v-49h-703v-537h600v-49h-600v-557h707v-49h-1055q-267 0 -422 168q-160 171 -160 457zM160 625q0 -268 143 -420q144 -156 381 -156h299v1143h-276q-251 0 -400 -152q-147 -150 -147 -415z" />
<glyph unicode="&#x153;" horiz-adv-x="1695" d="M98 449q0 205 111 331q109 127 289 127q145 0 242.5 -78t133.5 -219q42 140 137 218.5t228 78.5q164 0 259 -107.5t95 -291.5q0 -41 -2 -53h-692v-17q0 -193 87 -301t251 -108q241 0 299 235l47 -6q-31 -140 -124 -207t-228 -67q-293 0 -363 288q-39 -136 -133.5 -212 t-232.5 -76q-178 0 -291 131q-113 128 -113 334zM154 446q0 -182 96 -301q94 -116 258 -116q157 0 248 116q92 115 92 297q0 195 -93 307.5t-253 112.5t-254 -112.5t-94 -303.5zM901 500h639v10q0 157 -80.5 255.5t-220.5 98.5t-232.5 -98.5t-105.5 -265.5z" />
<glyph unicode="&#x178;" horiz-adv-x="1038" d="M14 1241h62l440 -688h6l443 688h59l-481 -747v-494h-51v496zM313 1468q0 31 25.5 44t51.5 0t26 -44q0 -51 -51 -51q-52 0 -52 51zM633 1468q0 31 25.5 44t51 0t25.5 -44q0 -51 -51 -51t-51 51z" />
<glyph unicode="&#x2c6;" horiz-adv-x="819" d="M158 1061l221 309h61l219 -305l-34 -16l-213 274h-9l-210 -276z" />
<glyph unicode="&#x2dc;" horiz-adv-x="819" d="M119 1085q0 81 39.5 129t105.5 48q75 0 154 -64q75 -63 137 -63q49 0 76.5 35.5t27.5 97.5h41q0 -84 -38.5 -130t-106.5 -46q-78 0 -156 63q-79 64 -131 64q-53 0 -80.5 -36t-27.5 -98h-41z" />
<glyph unicode="&#x2000;" horiz-adv-x="851" />
<glyph unicode="&#x2001;" horiz-adv-x="1702" />
<glyph unicode="&#x2002;" horiz-adv-x="851" />
<glyph unicode="&#x2003;" horiz-adv-x="1702" />
<glyph unicode="&#x2004;" horiz-adv-x="567" />
<glyph unicode="&#x2005;" horiz-adv-x="425" />
<glyph unicode="&#x2006;" horiz-adv-x="283" />
<glyph unicode="&#x2007;" horiz-adv-x="283" />
<glyph unicode="&#x2008;" horiz-adv-x="212" />
<glyph unicode="&#x2009;" horiz-adv-x="340" />
<glyph unicode="&#x200a;" horiz-adv-x="94" />
<glyph unicode="&#x2010;" horiz-adv-x="534" d="M61 508v51h412v-51h-412z" />
<glyph unicode="&#x2011;" horiz-adv-x="534" d="M61 508v51h412v-51h-412z" />
<glyph unicode="&#x2012;" horiz-adv-x="534" d="M61 508v51h412v-51h-412z" />
<glyph unicode="&#x2013;" horiz-adv-x="1163" d="M100 520v45h961v-45h-961z" />
<glyph unicode="&#x2014;" horiz-adv-x="1902" d="M102 520v45h1698v-45h-1698z" />
<glyph unicode="&#x2018;" horiz-adv-x="395" d="M109 1087q0 151 161 181l11 -35q-127 -27 -127 -141q0 -46 24 -64q18 41 55 41q21 0 35.5 -15t14.5 -38q0 -26 -19.5 -42t-50.5 -16q-47 0 -75.5 36.5t-28.5 92.5z" />
<glyph unicode="&#x2019;" horiz-adv-x="395" d="M109 1190q0 57 71 57q46 0 74.5 -37t28.5 -92q0 -73 -43 -120.5t-119 -59.5l-10 35q60 12 94.5 48.5t34.5 90.5q0 46 -27 64q-20 -39 -55 -39q-21 0 -35 15t-14 38z" />
<glyph unicode="&#x201a;" horiz-adv-x="395" d="M109 39q0 57 71 57q46 0 74.5 -37t28.5 -92q0 -73 -43 -120.5t-119 -59.5l-10 35q60 12 94.5 48.5t34.5 90.5q0 46 -27 64q-20 -39 -55 -39q-21 0 -35 15t-14 38z" />
<glyph unicode="&#x201c;" horiz-adv-x="647" d="M109 1087q0 151 161 181l11 -35q-127 -27 -127 -141q0 -46 24 -64q18 41 55 41q21 0 35.5 -15t14.5 -38q0 -26 -19.5 -42t-50.5 -16q-47 0 -75.5 36.5t-28.5 92.5zM360 1087q0 151 162 181l10 -35q-126 -27 -126 -141q0 -46 24 -64q18 41 55 41q21 0 35.5 -15t14.5 -38 q0 -26 -19.5 -42t-50.5 -16q-47 0 -76 36.5t-29 92.5z" />
<glyph unicode="&#x201d;" horiz-adv-x="645" d="M109 1190q0 57 71 57q46 0 74.5 -37t28.5 -92q0 -73 -43 -120.5t-119 -59.5l-10 35q60 12 94.5 48.5t34.5 90.5q0 46 -27 64q-20 -39 -55 -39q-21 0 -35 15t-14 38zM358 1190q0 57 72 57q46 0 74 -37t28 -92q0 -73 -43 -120.5t-118 -59.5l-11 35q60 12 94.5 48.5 t34.5 90.5q0 47 -26 64q-20 -39 -55 -39q-21 0 -35.5 15t-14.5 38z" />
<glyph unicode="&#x201e;" horiz-adv-x="643" d="M109 39q0 57 71 57q46 0 74.5 -37t28.5 -92q0 -73 -43 -120.5t-119 -59.5l-10 35q60 12 94.5 48.5t34.5 90.5q0 46 -27 64q-20 -39 -55 -39q-21 0 -35 15t-14 38zM356 39q0 57 72 57q46 0 74 -37t28 -92q0 -73 -43 -120.5t-118 -59.5l-11 35q60 12 94.5 48.5t34.5 90.5 q0 47 -26 64q-17 -39 -55 -39q-21 0 -35.5 15t-14.5 38z" />
<glyph unicode="&#x2022;" horiz-adv-x="561" d="M184 535q-6 58 45 82t102.5 0t45.5 -82q0 -43 -27 -70q-20 -21 -50.5 -25.5t-57 5.5t-44.5 34.5t-14 55.5z" />
<glyph unicode="&#x2026;" horiz-adv-x="1472" d="M164 47q0 25 15.5 40t41.5 15q25 0 40 -15t15 -40q0 -26 -15 -41.5t-40 -15.5q-57 0 -57 57zM680 47q0 25 15.5 40t41.5 15q25 0 40.5 -15t15.5 -40q0 -26 -15.5 -41.5t-40.5 -15.5q-57 0 -57 57zM1196 47q0 25 15.5 40t41.5 15q25 0 40.5 -15t15.5 -40 q0 -26 -15.5 -41.5t-40.5 -15.5q-57 0 -57 57z" />
<glyph unicode="&#x202f;" horiz-adv-x="340" />
<glyph unicode="&#x2039;" horiz-adv-x="536" d="M90 461v37l336 293l23 -39l-297 -267v-8l297 -266l-25 -37z" />
<glyph unicode="&#x203a;" horiz-adv-x="536" d="M90 213l297 266v8l-297 267l25 37l334 -287v-37l-336 -293z" />
<glyph unicode="&#x205f;" horiz-adv-x="425" />
<glyph unicode="&#x20ac;" horiz-adv-x="1175" d="M25 399v41h182q-8 47 -8 121q0 14 4 80h-178v41h182q32 214 170 334.5t344 120.5q264 0 377 -174l-39 -23q-106 152 -338 152q-188 0 -311 -107.5t-152 -302.5h524v-41h-528q-4 -66 -4 -76q0 -78 8 -125h524v-41h-516q36 -182 155.5 -276t307.5 -94q208 0 334 141l33 -31 q-134 -155 -369 -155q-210 0 -343.5 108t-170.5 307h-188z" />
<glyph unicode="&#x2122;" horiz-adv-x="1228" d="M45 1204v37h414v-37h-189v-461h-39v461h-186zM549 743v498h67l201 -453h6l199 453h70v-498h-39v453h-9l-200 -453h-49l-201 453h-6v-453h-39z" />
<glyph unicode="&#x25fc;" horiz-adv-x="890" d="M0 0v891h891v-891h-891z" />
</font>
</defs>
</svg>
