<?xml version="1.0" standalone="no"?>
<!DOCTYPE svg PUBLIC "-//W3C//DTD SVG 1.1//EN" "http://www.w3.org/Graphics/SVG/1.1/DTD/svg11.dtd" >
<svg xmlns="http://www.w3.org/2000/svg" xmlns:xlink="http://www.w3.org/1999/xlink" version="1.1">
<metadata></metadata>
<defs>
<font id="equitan_sansthin_italic" horiz-adv-x="970" >
<font-face units-per-em="2048" ascent="1569" descent="-479" />
<missing-glyph horiz-adv-x="368" />
<glyph unicode="&#xfb01;" horiz-adv-x="937" d="M-225 -336l26 39q41 -28 88 -35.5t93 6.5t82 67t49 140l188 967h-168l10 43h140q26 0 32 29l27 131q30 143 93.5 203.5t166.5 60.5q87 0 141 -45l-26 -39q-48 39 -121 39q-80 0 -130.5 -49t-74.5 -168l-33 -162h492l-174 -891h-49l166 848h-443l-188 -967 q-28 -143 -89.5 -202.5t-162.5 -59.5q-78 0 -135 45zM838 1208q0 23 16 38.5t39 15.5q45 0 45 -43q0 -23 -16 -38.5t-39 -15.5q-20 0 -32.5 12t-12.5 31z" />
<glyph unicode="&#xfb02;" horiz-adv-x="946" d="M-225 -336l26 39q41 -28 88 -35.5t93 6.5t82 67t49 140l188 967h-168l10 43h140q26 0 32 29l27 131q30 143 95.5 203.5t172.5 60.5q88 0 140 -43l-27 -39q-46 37 -121 37q-81 0 -134.5 -49.5t-76.5 -167.5l-33 -162h256l-10 -43h-254l-188 -967q-28 -143 -89.5 -202.5 t-162.5 -59.5q-78 0 -135 45zM637 0l254 1307h49l-254 -1307h-49z" />
<glyph horiz-adv-x="0" />
<glyph horiz-adv-x="682" />
<glyph horiz-adv-x="0" />
<glyph horiz-adv-x="0" />
<glyph unicode="&#xd;" horiz-adv-x="681" />
<glyph unicode=" "  horiz-adv-x="368" />
<glyph unicode="&#x09;" horiz-adv-x="368" />
<glyph unicode="&#xa0;" horiz-adv-x="368" />
<glyph unicode="!" horiz-adv-x="616" d="M160 39q0 25 19.5 44t45.5 19q49 0 49 -49q0 -26 -19.5 -44.5t-45.5 -18.5q-49 0 -49 49zM256 330q14 112 59 354l115 594h51l-114 -592q-36 -196 -80 -356h-31z" />
<glyph unicode="&#x22;" horiz-adv-x="602" d="M225 807l72 434h68l-103 -434h-37zM475 807l72 434h67l-102 -434h-37z" />
<glyph unicode="#" horiz-adv-x="1277" d="M66 227l8 43h239l99 506h-240l8 43h240l45 234h47l-45 -234h459l45 234h47l-45 -234h239l-8 -43h-239l-99 -506h240l-8 -43h-240l-45 -227h-47l45 227h-459l-45 -227h-47l45 227h-239zM360 270h459l99 506h-459z" />
<glyph unicode="$" horiz-adv-x="980" d="M51 293l45 8q20 -95 94 -152t183 -69l98 508q-151 55 -219 123t-68 161q0 123 98.5 194t266.5 71h29l34 174h43l-34 -178q126 -14 204 -82t95 -183l-48 -10q-38 205 -260 232l-92 -469q165 -61 235 -128.5t70 -162.5q0 -134 -109 -214.5t-294 -80.5h-12l-41 -203h-43 l41 205q-126 12 -212.5 80t-103.5 176zM236 874q0 -75 58.5 -132t186.5 -107l88 459h-20q-151 0 -232 -59t-81 -161zM416 78h12q161 0 253.5 67t92.5 183q0 83 -60 138t-202 107z" />
<glyph unicode="%" horiz-adv-x="1388" d="M86 696q0 111 76 187q78 78 190 78q93 0 154 -58.5t61 -148.5q0 -112 -75 -187q-78 -78 -191 -78q-93 0 -154 58.5t-61 148.5zM133 698q0 -74 46.5 -120t123.5 -46q92 0 154.5 64.5t62.5 155.5q0 74 -46.5 120t-123.5 46q-93 0 -155 -64t-62 -156zM285 0l751 948h56 l-752 -948h-55zM805 190q0 111 76 187q78 78 190 78q93 0 154 -58.5t61 -148.5q0 -111 -76 -187q-77 -77 -190 -77q-93 0 -154 58t-61 148zM852 193q0 -74 46.5 -120t123.5 -46q92 0 154.5 64t62.5 155q0 74 -46.5 120t-123.5 46q-93 0 -155 -63.5t-62 -155.5z" />
<glyph unicode="&#x26;" horiz-adv-x="1394" d="M55 252q0 141 99.5 239.5t312.5 172.5q-115 151 -115 270q0 147 101 235q102 91 249 91q119 0 198 -63t79 -161q0 -146 -145 -241q-71 -48 -133 -79t-160 -69l106 -123l230 -258q1 -1 3 -4t3 -4q18 16 80 78q148 154 262 379l43 -15q-105 -219 -277 -397q-10 -10 -80 -76 q96 -106 163.5 -152t139.5 -46q49 0 103 28l24 -39q-56 -36 -131 -36q-86 0 -161 50t-175 163q-260 -213 -497 -213q-141 0 -231.5 74t-90.5 196zM109 254q0 -100 77 -162.5t199 -62.5q223 0 461 198l-6 6l-234 265q-62 71 -110 131q-209 -80 -298 -163.5t-89 -211.5z M406 936q0 -111 108 -252q144 57 229 104q66 37 97 68q86 82 86 178q0 79 -64.5 129.5t-163.5 50.5q-128 0 -210 -75t-82 -203z" />
<glyph unicode="'" horiz-adv-x="352" d="M225 807l72 434h68l-103 -434h-37z" />
<glyph unicode="(" horiz-adv-x="712" d="M156 369q0 390 192 673q190 285 430 285h35l-8 -43h-29q-141 0 -272 -121.5t-215 -333.5q-86 -213 -86 -456q0 -250 82.5 -392.5t218.5 -142.5h18l-8 -43h-22q-144 0 -240 152t-96 422z" />
<glyph unicode=")" horiz-adv-x="712" d="M-70 -205l9 43h28q141 0 272.5 121.5t217.5 333.5q84 215 84 457q0 250 -82.5 392t-218.5 142h-19l8 43h23q145 0 240 -151q96 -152 96 -422q0 -388 -191 -674q-194 -285 -432 -285h-35z" />
<glyph unicode="*" horiz-adv-x="745" d="M209 1114l16 35l230 -76l53 254h37l-43 -254l258 74l4 -35l-256 -86l104 -207l-30 -18l-115 203l-195 -205l-26 20l186 213z" />
<glyph unicode="+" horiz-adv-x="968" d="M98 494l8 41h375l76 391h43l-76 -391h375l-8 -41h-375l-76 -392h-43l76 392h-375z" />
<glyph unicode="," horiz-adv-x="401" d="M-12 -190q99 14 147 88q46 69 4 129q-15 -31 -47 -31q-23 0 -37 14t-14 37q0 24 17 39.5t44 15.5q46 0 75.5 -35t29.5 -87q0 -75 -61.5 -135t-151.5 -72z" />
<glyph unicode="-" horiz-adv-x="514" d="M76 514l10 49h391l-10 -49h-391z" />
<glyph unicode="." horiz-adv-x="399" d="M80 39q0 25 19.5 44t45.5 19q50 0 50 -49q0 -26 -19.5 -44.5t-46.5 -18.5q-49 0 -49 49z" />
<glyph unicode="/" horiz-adv-x="731" d="M-68 -205l842 1532h49l-841 -1532h-50z" />
<glyph unicode="0" horiz-adv-x="1019" d="M102 387q0 227 136 404q135 172 337 172q160 0 253.5 -107t93.5 -293q0 -238 -136 -409q-135 -170 -327 -170q-166 0 -261.5 108.5t-95.5 294.5zM154 393q0 -172 81.5 -269t227.5 -97q165 0 287 155q120 153 120 377q0 167 -81 264t-220 97q-168 0 -293 -158 q-122 -158 -122 -369z" />
<glyph unicode="1" horiz-adv-x="649" d="M104 772q168 55 353 176h51l-184 -948h-50l175 889q-142 -98 -332 -160z" />
<glyph unicode="2" horiz-adv-x="937" d="M25 0l10 53l348 213q220 135 313 228q88 88 88 204q0 102 -72 162t-184 60q-139 0 -222 -65.5t-83 -164.5q0 -41 19 -90l-49 -14q-21 46 -21 100q0 126 102 203q103 74 254 74q137 0 222.5 -72t85.5 -189q0 -128 -99 -227q-99 -102 -336 -246l-299 -182h656l-8 -47h-725z " />
<glyph unicode="3" horiz-adv-x="931" d="M-31 -10l49 2q0 -123 86 -192.5t238 -69.5q143 0 250 90q102 89 102 231q0 117 -89.5 189.5t-225.5 72.5q-69 0 -109 -6l2 45q246 13 374 98t128 224q0 114 -78 180t-198 66q-134 0 -214.5 -62.5t-80.5 -157.5q0 -36 8 -67l-47 -6q-10 27 -10 69q0 121 97 194t247 73 q146 0 236.5 -79t90.5 -206q0 -136 -106 -229q-111 -97 -299 -103v-2q131 0 229 -76q96 -78 96 -211q0 -163 -120 -268q-122 -104 -291 -104q-170 0 -267.5 81.5t-97.5 223.5z" />
<glyph unicode="4" horiz-adv-x="980" d="M8 104l10 50l779 794h61l-156 -798h218l-11 -46h-215l-78 -397h-49l78 397h-637zM76 150h577l144 733h-2z" />
<glyph unicode="5" horiz-adv-x="935" d="M57 -35l47 4q12 -118 86 -179.5t187 -61.5q149 0 264 127q113 128 113 307q0 133 -76.5 214t-200.5 81q-87 0 -156 -42t-143 -139l-49 5l129 667h649l-10 -49h-604l-109 -561q116 162 295 162q147 0 236.5 -91t89.5 -243q0 -198 -127 -340q-126 -141 -305 -141 q-133 0 -218.5 71t-97.5 209z" />
<glyph unicode="6" horiz-adv-x="1007" d="M133 367q-4 227 69.5 436.5t199.5 336.5t266 122q138 0 216.5 -69t86.5 -192l-49 -8q-21 226 -256 226q-117 3 -228 -108t-178.5 -281.5t-73.5 -342.5q45 125 150 199q107 78 227 78q143 0 232.5 -88.5t89.5 -229.5q0 -183 -123 -321q-126 -141 -305 -141 q-146 0 -235 99.5t-89 283.5zM186 319q0 -130 76.5 -211t198.5 -81q155 0 264 127t109 290q0 126 -74.5 201.5t-202.5 75.5q-143 0 -256 -119q-115 -121 -115 -283z" />
<glyph unicode="7" horiz-adv-x="806" d="M47 -289l709 1190h-674l10 47h721l-10 -51l-703 -1186h-53z" />
<glyph unicode="8" horiz-adv-x="1042" d="M86 289q0 148 102 250q99 99 242 120v5q-88 20 -138 84t-50 157q0 144 114 252q114 105 291 105q146 0 234 -76t88 -199q0 -125 -83.5 -213.5t-215.5 -120.5v-4q99 -20 166 -98t67 -174q0 -167 -129 -281q-127 -112 -325 -112q-164 0 -263.5 84t-99.5 221zM137 287 q0 -112 89.5 -186t224.5 -74q177 0 290 104q111 105 111 244q0 110 -90.5 183t-231.5 73q-170 0 -280 -94q-113 -94 -113 -250zM293 911q0 -105 73 -169t195 -64q153 0 256 92q101 88 101 213q0 104 -76 170t-197 66q-147 0 -252 -91q-100 -90 -100 -217z" />
<glyph unicode="9" horiz-adv-x="1007" d="M35 -55l49 8q21 -225 252 -225q185 0 328 229q140 232 155 510q-42 -119 -146 -194.5t-231 -75.5q-142 0 -229.5 87.5t-87.5 227.5q0 177 123 315q124 136 301 136q145 0 234 -98.5t89 -278.5q4 -230 -69.5 -441t-200 -338.5t-268.5 -121.5q-135 0 -213 69t-86 191z M176 514q0 -125 73 -199.5t200 -74.5q144 0 256 118q112 115 112 275q0 128 -75.5 207.5t-196.5 79.5q-152 0 -260 -123q-109 -127 -109 -283z" />
<glyph unicode=":" horiz-adv-x="425" d="M86 39q0 25 20 44t46 19q49 0 49 -49q0 -26 -19.5 -44.5t-46.5 -18.5q-49 0 -49 49zM205 647q0 25 19.5 44.5t45.5 19.5q49 0 49 -49q0 -26 -19.5 -45t-45.5 -19q-49 0 -49 49z" />
<glyph unicode=";" horiz-adv-x="421" d="M4 -190q100 15 148 88q46 69 4 129q-16 -31 -47 -31q-23 0 -37.5 14t-14.5 37q0 24 17.5 39.5t44.5 15.5q46 0 75 -35t29 -87q0 -75 -61.5 -135t-151.5 -72zM205 647q0 25 19.5 44.5t45.5 19.5q49 0 49 -49q0 -26 -19.5 -45t-45.5 -19q-49 0 -49 49z" />
<glyph unicode="&#x3c;" d="M168 498l8 34l684 295l-10 -47l-610 -264l-2 -6l518 -262l-11 -43z" />
<glyph unicode="=" d="M106 348l9 41h712l-8 -41h-713zM164 639l8 41h713l-8 -41h-713z" />
<glyph unicode="&#x3e;" d="M137 205l10 47l611 264l2 6l-518 262l10 43l577 -292l-8 -35z" />
<glyph unicode="?" horiz-adv-x="983" d="M203 938q0 148 119 258q118 109 311 109q171 0 268.5 -73t97.5 -198q0 -83 -58 -157.5t-144 -122.5q-70 -40 -197 -88q-150 -59 -214 -110t-64 -107q0 -97 112 -97q60 0 131 47l23 -37q-72 -57 -160 -57q-74 0 -117 36t-43 97q0 78 74.5 141.5t245.5 129.5 q189 72 274.5 145.5t85.5 179.5q0 105 -82 165.5t-233 60.5q-163 0 -271 -91q-105 -89 -108 -227zM322 39q0 25 19.5 44t45.5 19q49 0 49 -49q0 -26 -19.5 -44.5t-45.5 -18.5q-49 0 -49 49z" />
<glyph unicode="@" horiz-adv-x="1884" d="M123 285q0 160 62 316t175 284q115 130 294.5 205t389.5 75q341 0 531 -172q190 -175 190 -432q0 -258 -125 -416q-124 -161 -303 -161q-90 0 -143 41.5t-53 121.5q0 27 6 54l2 10q-54 -110 -140.5 -170.5t-191.5 -60.5q-117 0 -187.5 80.5t-70.5 220.5q0 203 121 368 q119 162 297 162q92 0 159.5 -58.5t84.5 -152.5l43 195h34l-112 -590q-4 -20 -4 -47q0 -66 43 -102t118 -36q153 0 267 150q110 146 110 391q0 240 -176 404q-179 159 -502 159q-196 0 -364.5 -71t-280.5 -193q-110 -119 -169.5 -267.5t-59.5 -305.5q0 -256 170 -432 q171 -174 500 -177q54 0 129 11l-4 -39q-58 -10 -125 -10q-351 0 -531 186q-184 187 -184 459zM606 281q0 -125 59 -191.5t160 -66.5q150 0 258 147q109 148 109 346q0 115 -62.5 184.5t-156.5 69.5q-153 0 -260 -149t-107 -340z" />
<glyph unicode="A" horiz-adv-x="1093" d="M-47 0l715 1241h69l230 -1241h-52l-79 440h-576l-254 -440h-53zM287 487h540l-129 703h-8z" />
<glyph unicode="B" horiz-adv-x="1179" d="M96 0l242 1241h387q163 0 256.5 -73.5t93.5 -211.5q0 -129 -96 -219t-240 -102v-2q116 -1 190.5 -77.5t74.5 -188.5q0 -152 -130 -261q-130 -106 -350 -106h-428zM156 45h376q200 0 310 94q108 92 108 226q0 112 -81.5 178.5t-215.5 66.5h-387zM274 655h365q169 0 276 88 t107 211q0 116 -77.5 179t-217.5 63h-348z" />
<glyph unicode="C" horiz-adv-x="1296" d="M156 514q0 302 184 522q185 221 451 221q193 0 313 -108q121 -109 121 -291q0 -37 -2 -47h-47v41q0 166 -106 263t-284 97q-242 0 -409 -206q-168 -204 -168 -484q0 -226 123 -358q120 -135 325 -135q159 0 279 84t174 237l47 -6q-51 -167 -187 -263.5t-317 -96.5 q-219 0 -358 145t-139 385z" />
<glyph unicode="D" horiz-adv-x="1286" d="M96 0l242 1241h354q224 0 371 -135q145 -136 145 -393q0 -288 -200 -500q-204 -213 -480 -213h-432zM156 45h374q257 0 441 199q182 200 182 467q0 234 -129 360q-131 125 -332 125h-311z" />
<glyph unicode="E" horiz-adv-x="1005" d="M96 0l242 1241h739l-10 -45h-686l-107 -541h586l-8 -45h-586l-110 -565h694l-10 -45h-744z" />
<glyph unicode="F" d="M96 0l242 1241h711l-11 -45h-657l-109 -551h596l-8 -45h-596l-117 -600h-51z" />
<glyph unicode="G" horiz-adv-x="1404" d="M150 504q0 305 198 528q196 225 475 225q191 0 328 -104t137 -315l-49 -2q-3 189 -127 282q-125 94 -293 94q-254 0 -434 -213q-180 -210 -180 -489q0 -223 119.5 -352t318.5 -129q198 0 339 131t216 360h-446l10 47h495l-110 -567h-47l67 350q-185 -366 -528 -366 q-216 0 -352 139q-137 137 -137 381z" />
<glyph unicode="H" horiz-adv-x="1284" d="M96 0l242 1241h51l-115 -588h818l114 588h51l-241 -1241h-51l118 606h-817l-119 -606h-51z" />
<glyph unicode="I" horiz-adv-x="415" d="M96 0l242 1241h51l-242 -1241h-51z" />
<glyph unicode="J" horiz-adv-x="942" d="M47 262q0 52 14 123h50q-13 -73 -13 -119q0 -105 70 -170t180 -65q126 0 218.5 78t123.5 237l166 848h-356l10 47h405l-174 -893q-70 -364 -383 -364q-130 0 -219 77q-92 77 -92 201z" />
<glyph unicode="K" horiz-adv-x="1128" d="M96 0l242 1241h51l-160 -819l918 819h63l-643 -577l408 -664h-60l-385 629l-315 -277l-68 -352h-51z" />
<glyph unicode="L" horiz-adv-x="884" d="M96 0l242 1241h51l-233 -1196h628l-8 -45h-680z" />
<glyph unicode="M" horiz-adv-x="1562" d="M96 0l242 1241h74l293 -1165h6l743 1165h84l-242 -1241h-49l228 1178h-7l-753 -1178h-39l-297 1178h-4l-230 -1178h-49z" />
<glyph unicode="N" horiz-adv-x="1261" d="M96 0l242 1241h57l461 -942l105 -215h4l223 1157h47l-242 -1241h-45l-573 1174h-4l-228 -1174h-47z" />
<glyph unicode="O" horiz-adv-x="1402" d="M154 512q0 310 188 528q187 217 465 217q224 0 369 -151t145 -377q0 -308 -188 -526q-192 -219 -463 -219q-230 0 -373 149q-143 146 -143 379zM207 520q0 -215 127 -354q125 -137 340 -137q248 0 422 204q172 205 172 488q0 213 -127 352q-130 139 -342 139 q-251 0 -420 -202q-172 -205 -172 -490z" />
<glyph unicode="P" horiz-adv-x="1054" d="M96 0l242 1241h387q162 0 252 -74t90 -213q0 -162 -121 -268q-118 -106 -311 -106h-375l-113 -580h-51zM268 625h375q162 0 266 94q105 91 105 233q0 121 -74 182.5t-215 61.5h-344z" />
<glyph unicode="Q" horiz-adv-x="1402" d="M154 512q0 310 188 528q187 217 465 217q224 0 369 -151t145 -377q0 -245 -123 -438q-127 -196 -321 -268l67 -80q50 -57 82 -79t72 -22q66 0 119 68l40 -23q-33 -51 -69 -72.5t-92 -21.5q-93 0 -197 125l-74 86q-79 -20 -155 -20q-230 0 -373 149q-143 146 -143 379z M207 520q0 -215 127 -354q125 -137 340 -137q248 0 422 204q172 205 172 488q0 213 -127 352q-130 139 -342 139q-251 0 -420 -202q-172 -205 -172 -490z" />
<glyph unicode="R" horiz-adv-x="1206" d="M96 0l242 1241h467q165 0 253.5 -71t88.5 -201q0 -142 -100 -238t-265 -113q100 -18 138 -76q28 -44 29 -116q0 -23 -3 -49l-22 -221q-2 -23 -2 -41q0 -33 7 -49q11 -24 46 -23q14 0 20 2l-2 -47q-8 -2 -32 -2q-91 0 -91 122q0 18 2 38l23 219q2 22 2 42q0 87 -43 127 q-53 50 -199 50h-393l-115 -594h-51zM272 643h404q189 0 303.5 89t114.5 237q0 106 -77.5 166.5t-217.5 60.5h-418z" />
<glyph unicode="S" horiz-adv-x="1058" d="M63 334l50 2q12 -155 116.5 -231t280.5 -76q156 0 252 74.5t96 205.5q0 97 -75.5 165t-235.5 136q-164 70 -246 152t-82 199q0 125 107 210q106 86 272 86q189 0 303 -91.5t115 -256.5h-49q-21 303 -373 303q-141 0 -231.5 -69.5t-90.5 -175.5q0 -103 75.5 -176.5 t227.5 -139.5q172 -74 254 -150.5t82 -187.5q0 -152 -114 -241q-113 -88 -289 -88q-201 0 -318 87.5t-127 262.5z" />
<glyph unicode="T" horiz-adv-x="1028" d="M168 1196l10 45h987l-10 -45h-467l-231 -1196h-51l231 1196h-469z" />
<glyph unicode="U" horiz-adv-x="1189" d="M162 319q0 63 10 121l152 801h51l-152 -801q-10 -55 -10 -114q0 -141 82.5 -219t234.5 -78q168 0 284.5 105t152.5 298l157 809h52l-158 -807q-42 -219 -171.5 -334.5t-322.5 -115.5q-169 0 -265.5 90t-96.5 245z" />
<glyph unicode="V" horiz-adv-x="1079" d="M184 1241h52l225 -1184h6l684 1184h55l-721 -1241h-63z" />
<glyph unicode="W" horiz-adv-x="1816" d="M203 1241h47l188 -1184h11l602 1184h57l125 -1184h10l623 1184h53l-655 -1241h-72l-121 1178h-4l-596 -1178h-74z" />
<glyph unicode="X" horiz-adv-x="1103" d="M-31 0l590 647l-307 594h55l289 -557h4l514 557h62l-553 -602l333 -639h-57l-311 602h-4l-553 -602h-62z" />
<glyph unicode="Y" horiz-adv-x="1021" d="M162 1241h55l297 -686h4l569 686h60l-617 -745l-96 -496h-51l98 506z" />
<glyph unicode="Z" horiz-adv-x="1050" d="M-37 0l10 49l1080 1147h-787l10 45h842l-10 -49l-1079 -1147h854l-11 -45h-909z" />
<glyph unicode="[" horiz-adv-x="669" d="M43 -205l299 1532h346l-8 -43h-301l-283 -1446h301l-8 -43h-346z" />
<glyph unicode="\" horiz-adv-x="751" d="M178 1327h43l354 -1532h-43z" />
<glyph unicode="]" horiz-adv-x="669" d="M-37 -205l8 43h299l283 1446h-299l8 43h344l-299 -1532h-344z" />
<glyph unicode="^" horiz-adv-x="841" d="M227 813l332 428h51l166 -434l-35 -10l-159 399h-7l-315 -397z" />
<glyph unicode="_" horiz-adv-x="722" d="M-33 -63l8 43h592l-8 -43h-592z" />
<glyph unicode="`" horiz-adv-x="819" d="M229 1348l35 38l299 -311l-26 -26z" />
<glyph unicode="a" horiz-adv-x="1028" d="M86 356q0 212 139 383q138 166 318 166q117 0 199.5 -64t105.5 -173l49 223h43l-172 -891h-45l41 225q-61 -112 -155 -176.5t-193 -64.5q-152 0 -241 97.5t-89 274.5zM137 362q0 -162 76 -248.5t209 -86.5q150 0 274 161q125 162 125 357q0 148 -79.5 232.5t-202.5 84.5 q-162 0 -281 -155q-121 -157 -121 -345z" />
<glyph unicode="b" horiz-adv-x="1038" d="M86 0l254 1307h49l-84 -430q-28 -145 -45 -224q63 117 160.5 184.5t200.5 67.5q152 0 240.5 -97t88.5 -273q0 -217 -141 -383q-140 -168 -322 -168q-119 0 -203 67.5t-104 179.5l-49 -231h-45zM209 342q0 -149 78.5 -232t204.5 -83q162 0 286 157q121 157 121 348 q0 159 -76 244.5t-207 85.5q-155 0 -280 -162q-127 -165 -127 -358z" />
<glyph unicode="c" horiz-adv-x="929" d="M86 348q0 216 133 387q132 170 334 170q134 0 220.5 -71.5t86.5 -186.5q0 -43 -2 -57l-49 2q2 8 2 37q0 110 -71.5 171.5t-186.5 61.5q-181 0 -299 -157q-117 -156 -117 -349q0 -154 77.5 -241.5t211.5 -87.5q214 0 328 239l43 -8q-114 -274 -385 -274q-138 0 -232 98 t-94 266z" />
<glyph unicode="d" horiz-adv-x="1038" d="M86 356q0 214 141 383q138 166 320 166q118 0 203.5 -68t105.5 -178l125 648h49l-254 -1307h-45l41 225q-63 -110 -159.5 -175.5t-196.5 -65.5q-152 0 -241 97.5t-89 274.5zM137 362q0 -161 77 -248t210 -87q154 0 278 161q125 162 125 357q0 148 -79.5 232.5 t-204.5 84.5q-166 0 -285 -155q-121 -157 -121 -345z" />
<glyph unicode="e" horiz-adv-x="952" d="M88 369q0 209 135 372q132 164 332 164q141 0 226 -85.5t85 -223.5q0 -70 -16 -139h-705q-6 -41 -6 -78q0 -165 78.5 -258.5t214.5 -93.5q223 0 334 217l43 -8q-120 -252 -389 -252q-142 0 -236 104q-96 107 -96 281zM154 500h655q8 39 8 92q0 121 -70.5 195.5 t-195.5 74.5q-143 0 -250 -104q-109 -106 -147 -258z" />
<glyph unicode="f" horiz-adv-x="536" d="M-225 -336l26 39q41 -28 88 -35q16 -3 33 -3q30 0 60 9q46 14 82 67t49 140l188 967h-168l10 43h140q26 0 32 29l27 131q30 143 95.5 203.5t172.5 60.5q94 0 148 -45l-27 -39q-48 39 -129 39t-134.5 -49.5t-76.5 -167.5l-33 -162h256l-10 -43h-254l-188 -967 q-28 -143 -89.5 -202.5t-162.5 -59.5q-78 0 -135 45z" />
<glyph unicode="g" horiz-adv-x="964" d="M-45 -172q0 110 93 185.5t255 88.5q-141 21 -141 117q0 51 50 90t138 51q-85 20 -134.5 81.5t-49.5 140.5q0 137 110 231q112 92 277 92q120 0 197 -51l262 154l26 -41l-254 -138q78 -69 78 -174q0 -141 -114 -229q-118 -92 -287 -92h-29q-94 0 -156.5 -30.5t-62.5 -80.5 q0 -43 36.5 -64.5t123.5 -33.5l139 -21q156 -23 226.5 -75t70.5 -140q0 -132 -137 -211t-348 -79q-154 0 -261 61q-108 62 -108 168zM6 -166q0 -86 90.5 -139t231.5 -53q190 0 309 67q121 68 121 174q0 185 -393 185q-170 0 -264.5 -66.5t-94.5 -167.5zM217 586 q0 -94 67.5 -151.5t186.5 -57.5q152 0 246 82q94 79 94 192q0 94 -69 152.5t-191 58.5q-148 0 -241 -77t-93 -199z" />
<glyph unicode="h" horiz-adv-x="983" d="M86 0l254 1307h49l-90 -463q-22 -108 -43 -199q120 260 348 260q118 0 191 -64.5t73 -178.5q0 -49 -14 -123l-104 -539h-50l101 520q16 75 16 135q0 100 -61.5 152.5t-163.5 52.5q-115 0 -223 -108q-109 -106 -144 -285l-90 -467h-49z" />
<glyph unicode="i" horiz-adv-x="397" d="M86 0l174 891h49l-174 -891h-49zM297 1208q0 23 16 38.5t39 15.5q45 0 45 -43q0 -23 -16 -38.5t-39 -15.5q-20 0 -32.5 12t-12.5 31z" />
<glyph unicode="j" horiz-adv-x="391" d="M-250 -354l29 43q56 -41 121 -41q55 0 94.5 45.5t58.5 132.5l209 1065h49l-211 -1077q-44 -213 -211 -213q-82 0 -139 45zM295 1208q0 23 16 38.5t39 15.5q45 0 45 -43q0 -23 -16 -38.5t-39 -15.5q-20 0 -32.5 12t-12.5 31z" />
<glyph unicode="k" horiz-adv-x="882" d="M86 0l254 1307h49l-184 -953l669 537h64l-469 -383l219 -399q37 -70 82 -70q14 0 18 2v-47q-12 -4 -26 -4q-69 0 -121 98l-211 393l-240 -194l-55 -287h-49z" />
<glyph unicode="l" horiz-adv-x="399" d="M88 0l254 1307h49l-254 -1307h-49z" />
<glyph unicode="m" horiz-adv-x="1589" d="M86 0l174 891h49l-14 -70q-5 -19 -18.5 -84.5t-18.5 -87.5q120 256 344 256q114 0 185.5 -65.5t70.5 -188.5q64 126 157 190t197 64q116 0 189.5 -64.5t73.5 -178.5q0 -44 -15 -123l-104 -539h-49l100 520q16 75 16 135q0 100 -61 152.5t-162 52.5q-112 0 -213 -98 q-105 -99 -145 -268l-97 -494h-49l101 520q14 60 14 137q0 99 -60 151t-161 52q-116 0 -221 -108q-107 -107 -142 -285l-92 -467h-49z" />
<glyph unicode="n" horiz-adv-x="985" d="M86 0l174 891h49l-14 -70q-4 -23 -17.5 -84t-19.5 -90q117 258 348 258q118 0 191 -64.5t73 -178.5q0 -49 -14 -123l-104 -539h-50l101 520q16 75 16 135q0 100 -61.5 152.5t-163.5 52.5q-117 0 -223 -106q-110 -110 -144 -287l-92 -467h-49z" />
<glyph unicode="o" horiz-adv-x="974" d="M88 360q0 216 139 381q138 164 324 164q159 0 247.5 -99t88.5 -276q0 -221 -137 -383q-138 -163 -336 -163q-150 0 -238 99t-88 277zM139 362q0 -158 77.5 -246.5t203.5 -88.5q171 0 293 155q123 156 123 346q0 157 -78 245.5t-209 88.5q-167 0 -287 -153 q-123 -156 -123 -347z" />
<glyph unicode="p" horiz-adv-x="1038" d="M8 -395l252 1286h49l-16 -80l-33 -156q61 115 159.5 182.5t201.5 67.5q152 0 240.5 -97t88.5 -273q0 -217 -141 -383q-140 -168 -322 -168q-119 0 -203 67.5t-104 179.5l-123 -626h-49zM209 342q0 -149 78.5 -232t204.5 -83q162 0 286 157q121 157 121 348 q0 159 -76 244.5t-207 85.5q-155 0 -280 -162q-127 -165 -127 -358z" />
<glyph unicode="q" horiz-adv-x="1030" d="M86 356q0 214 141 383q138 166 320 166q118 0 202 -66t107 -177l57 235h39l-252 -1292h-49l123 626q-63 -115 -159 -181t-199 -66q-152 0 -241 97.5t-89 274.5zM137 362q0 -161 77 -248t210 -87q154 0 278 161q125 162 125 357q0 148 -79.5 232.5t-204.5 84.5 q-166 0 -285 -155q-121 -157 -121 -345z" />
<glyph unicode="r" horiz-adv-x="628" d="M86 0l174 891h49l-14 -70q-20 -98 -39 -174q126 255 348 258q38 0 62 -6l-13 -47q-24 6 -57 6q-96 0 -205 -84q-58 -45 -103.5 -133.5t-68.5 -204.5l-84 -436h-49z" />
<glyph unicode="s" horiz-adv-x="851" d="M43 244l47 4q19 -117 87.5 -169t199.5 -52q118 0 192 54.5t74 149.5q0 89 -74 136q-48 27 -67 36q-9 3 -38.5 15t-51.5 20q-106 41 -170 84q-80 54 -80 152q0 100 84 165.5t227 65.5q140 0 221.5 -70t81.5 -186l-47 -2q-5 101 -70.5 158t-189.5 57q-116 0 -187 -51 t-71 -131q0 -71 52 -114.5t167 -84.5q99 -34 148 -61q39 -23 61 -45q53 -57 53 -139q0 -111 -90.5 -181.5t-228.5 -70.5q-309 0 -330 260z" />
<glyph unicode="t" horiz-adv-x="612" d="M123 848l10 43h143q28 0 31 22l62 252h37l-54 -274h275l-11 -43h-274l-123 -633q-4 -28 -4 -72q0 -50 31 -81t82 -31q84 0 151 61l21 -37q-74 -71 -176 -71q-70 0 -114 42t-44 113q0 50 4 74l123 635h-170z" />
<glyph unicode="u" d="M121 229q0 52 14 123l105 539h49l-101 -520q-16 -88 -16 -135q0 -100 59.5 -153.5t159.5 -53.5q116 0 219 106q106 109 140 289l92 467h49l-174 -891h-51l14 70q2 9 37 172q-117 -258 -338 -258q-118 0 -188 64.5t-70 180.5z" />
<glyph unicode="v" horiz-adv-x="831" d="M109 891h49l159 -825h7l493 825h53l-534 -891h-51z" />
<glyph unicode="w" horiz-adv-x="1437" d="M135 891h49l117 -836h8l453 836h57l117 -836h8l442 836h54l-477 -891h-64l-115 838h-6l-450 -838h-64z" />
<glyph unicode="x" horiz-adv-x="845" d="M-35 0l430 461l-223 430h53l205 -397h2l369 397h59l-403 -436l245 -455h-53l-227 422h-2l-395 -422h-60z" />
<glyph unicode="y" horiz-adv-x="837" d="M-121 -344l35 37q26 -45 90 -45q88 0 176 149l144 240h-15l-203 854h52l184 -799h10l469 799h51l-657 -1120q-102 -170 -209 -170q-90 0 -127 55z" />
<glyph unicode="z" horiz-adv-x="729" d="M-31 0l8 45l728 803h-541l10 43h592l-10 -45l-723 -803h577l-10 -43h-631z" />
<glyph unicode="{" horiz-adv-x="694" d="M61 549l11 45h53q197 0 240 225l47 244q29 148 90.5 206t185.5 58h109l-9 -43h-102q-106 0 -156 -49t-75 -178l-47 -244q-41 -217 -205 -244v-2q119 -34 119 -172q0 -26 -35 -219q-35 -196 -35 -207q0 -68 37 -99.5t121 -31.5h96l-8 -43h-101q-190 0 -190 172 q0 11 35 207q32 177 32 215q0 75 -42 117.5t-117 42.5h-54z" />
<glyph unicode="|" horiz-adv-x="593" d="M147 -205l299 1532h43l-299 -1532h-43z" />
<glyph unicode="}" horiz-adv-x="714" d="M-63 -205l8 43h102q107 0 157 50.5t75 177.5l51 264q41 216 205 243v2q-119 34 -119 173q0 34 33 208q32 168 32 199q0 68 -36.5 98.5t-120.5 30.5h-97l9 43h100q190 0 190 -172q0 -13 -30 -194q-33 -174 -33 -207q0 -75 42.5 -117.5t117.5 -42.5h53l-10 -45h-54 q-196 0 -239 -225l-51 -265q-29 -148 -91 -206t-186 -58h-108z" />
<glyph unicode="~" d="M121 408q58 180 211 180q51 0 96 -22t72 -54q63 -78 143 -78q61 0 100 36.5t70 111.5l37 -7q-26 -85 -82 -132.5t-129 -47.5q-40 0 -74.5 16t-59.5 38.5t-49.5 45t-57 38.5t-70.5 16q-61 0 -100 -36.5t-70 -111.5z" />
<glyph unicode="&#xa1;" horiz-adv-x="616" d="M135 -309l115 592q36 196 80 356h30q-14 -112 -59 -354l-115 -594h-51zM342 915q0 26 20 45t46 19q49 0 49 -49q0 -25 -20 -44.5t-46 -19.5q-49 0 -49 49z" />
<glyph unicode="&#xa2;" horiz-adv-x="944" d="M109 381q0 228 133 399q130 167 321 176l45 230h43l-45 -230q121 -7 194.5 -73.5t73.5 -159.5l-45 -6q-7 90 -68.5 140.5t-160.5 55.5l-164 -839h4q230 0 334 235l41 -12q-114 -268 -379 -268h-8l-39 -197h-43l39 201q-130 17 -203 108.5t-73 239.5zM160 385 q0 -133 61.5 -212t171.5 -97l164 837q-169 -15 -283 -165t-114 -363z" />
<glyph unicode="&#xa3;" horiz-adv-x="1071" d="M-18 4q178 137 250.5 225.5t72.5 186.5q0 45 -10 110h-207l8 43h191q-31 155 -31 219q0 149 104 250q105 99 283 99q152 0 245 -66t93 -180q0 -66 -20 -127l-43 4q14 55 14 117q0 98 -80 153.5t-211 55.5q-153 0 -243.5 -84t-90.5 -219q0 -60 33 -222h377l-8 -43h-363 q8 -36 8 -94q0 -91 -42 -163.5t-144 -166.5l274 -43q185 -28 271 -28q70 0 117.5 58.5t78.5 199.5l45 -6q-35 -164 -93.5 -232.5t-147.5 -68.5q-83 0 -277 30l-307 47l-113 -82z" />
<glyph unicode="&#xa4;" horiz-adv-x="980" d="M84 174l147 131q-53 71 -53 172q0 157 103 266l-97 119l37 31l96 -117q89 74 224 74q132 0 213 -84l149 127l29 -33l-150 -129q52 -70 52 -168q0 -165 -111 -276l96 -115l-37 -31l-98 115q-94 -66 -213 -66q-131 0 -211 80l-147 -129zM227 481q0 -109 69 -178.5 t179 -69.5q135 0 223 97q86 95 86 229q0 109 -68.5 178.5t-178.5 69.5q-139 0 -224 -94q-86 -95 -86 -232z" />
<glyph unicode="&#xa5;" horiz-adv-x="1257" d="M162 225l10 43h369l45 224h-371l8 43h344l-329 602h55l325 -594h7l555 594h61l-565 -602h342l-8 -43h-373l-45 -224h375l-11 -43h-372l-43 -225h-52l43 225h-370z" />
<glyph unicode="&#xa6;" horiz-adv-x="593" d="M147 -205l119 606h43l-119 -606h-43zM328 721l118 606h43l-118 -606h-43z" />
<glyph unicode="&#xa7;" horiz-adv-x="989" d="M86 -12h49q6 -105 85.5 -158t209.5 -53q141 0 231.5 64t90.5 167q0 83 -72 137t-250 103q-147 39 -219 97.5t-72 146.5q0 98 94 174q90 75 293 75q-138 48 -195 101.5t-57 140.5q0 122 104 199.5t271 77.5q149 0 245.5 -67t96.5 -187h-49q-6 105 -85.5 158t-209.5 53 q-141 0 -231 -64.5t-90 -167.5q0 -82 71 -135.5t250 -104.5q151 -43 221 -99t70 -144q0 -95 -92 -172q-96 -78 -295 -78q138 -48 195 -101.5t57 -140.5q0 -122 -104 -199t-271 -77q-149 0 -245.5 67t-96.5 187zM190 496q0 -98 109 -154q107 -55 260 -55q154 0 241 60.5 t87 150.5q0 97 -109 153t-260 56q-154 0 -241 -60.5t-87 -150.5z" />
<glyph unicode="&#xa8;" horiz-adv-x="819" d="M256 1159q0 38 37 48q33 9 51 -11q10 -12 8 -29q0 -21 -15 -36t-38 -15q-19 0 -31 12t-12 31zM569 1159q0 37 37 48q33 9 52 -12q10 -11 8 -28q0 -21 -15.5 -36t-38.5 -15q-19 0 -31 12t-12 31z" />
<glyph unicode="&#xa9;" horiz-adv-x="1394" d="M90 543q0 302 205 510q203 209 489 209q257 0 422 -160q164 -159 164 -406q0 -300 -205 -508t-491 -208q-257 0 -420 159q-164 156 -164 404zM135 547q0 -230 150 -377q150 -150 391 -150q263 0 457 197q192 195 192 475q0 232 -149 381q-151 148 -394 148 q-260 0 -454 -197q-193 -196 -193 -477zM395 557q0 175 111 307q107 131 268 131q126 0 194 -65.5t68 -179.5l-43 -2q-4 97 -62.5 150.5t-158.5 53.5q-138 0 -231 -112q-95 -115 -95 -277q0 -127 65.5 -198.5t178.5 -71.5q197 0 268 203l41 -11q-42 -113 -122.5 -175 t-190.5 -62q-131 0 -211 84.5t-80 224.5z" />
<glyph unicode="&#xaa;" horiz-adv-x="747" d="M109 518l8 35h542l-8 -35h-542zM168 901q0 138 88 248q86 108 211 108q67 0 114.5 -36.5t59.5 -98.5l31 119h35l-121 -541h-35l27 131q-79 -137 -220 -137q-85 0 -137.5 57t-52.5 150zM211 903q0 -83 41.5 -127.5t112.5 -44.5q103 0 178 100t75 230q0 74 -43 117t-112 43 q-106 0 -178 -97q-74 -100 -74 -221z" />
<glyph unicode="&#xab;" horiz-adv-x="878" d="M88 465l6 33l391 288l21 -38l-350 -269v-6l241 -264l-30 -33zM430 465l6 33l391 288l21 -38l-350 -269v-6l241 -264l-30 -33z" />
<glyph unicode="&#xac;" d="M119 494l8 41h707l-58 -299h-45l49 258h-661z" />
<glyph unicode="&#xad;" horiz-adv-x="514" d="M76 514l10 49h391l-10 -49h-391z" />
<glyph unicode="&#xae;" horiz-adv-x="1394" d="M90 543q0 302 205 510q203 209 489 209q257 0 422 -160q164 -159 164 -406q0 -300 -205 -508t-491 -208q-257 0 -420 159q-164 156 -164 404zM135 547q0 -230 150 -377q150 -150 391 -150q263 0 457 197q192 195 192 475q0 232 -149 381q-151 148 -394 148 q-260 0 -454 -197q-193 -196 -193 -477zM403 285l142 702h297q103 0 159 -43.5t56 -124.5q0 -85 -66 -138.5t-170 -53.5v-2q116 -9 107 -133l-6 -95q-2 -45 4 -58t30 -13l-4 -41q-4 -2 -20 -2q-69 0 -60 116l7 86q4 65 -29 92t-115 27h-219l-63 -319h-50zM526 651h238 q118 0 179 45.5t61 118.5q0 131 -166 131h-252z" />
<glyph unicode="&#xaf;" horiz-adv-x="819" d="M197 1133l8 38h528l-8 -38h-528z" />
<glyph unicode="&#xb0;" horiz-adv-x="681" d="M205 1001q0 102 76 181q77 80 202 80q98 0 160 -56t62 -147q0 -106 -76 -185t-201 -79q-98 0 -160.5 57.5t-62.5 148.5zM252 1004q0 -72 52 -120t130 -48q97 0 160 65t63 154q0 73 -51 120.5t-129 47.5q-97 0 -161 -65t-64 -154z" />
<glyph unicode="&#xb1;" d="M23 0l8 41h753l-8 -41h-753zM104 522l9 41h374l64 332h43l-64 -332h375l-8 -41h-375l-63 -332h-43l63 332h-375z" />
<glyph unicode="&#xb2;" horiz-adv-x="610" d="M90 604l8 41l217 148q113 78 119 81q24 17 80 66q45 40 62.5 73.5t17.5 73.5q0 61 -45.5 96.5t-118.5 35.5q-96 0 -145 -44.5t-49 -121.5h-46q0 100 65 153.5t177 53.5q90 0 150.5 -46t60.5 -122q0 -47 -21 -87.5t-73 -84.5q-56 -49 -90 -74q-51 -37 -123 -86l-164 -113 h410l-9 -43h-483z" />
<glyph unicode="&#xb3;" horiz-adv-x="600" d="M111 760l45 2q1 -65 48.5 -100t123.5 -35q91 0 150 44.5t59 116.5q0 114 -164 123q-44 0 -74 -6l4 43q143 19 206.5 57.5t63.5 110.5q0 48 -43.5 76.5t-111.5 28.5q-164 0 -185 -136h-45q8 82 68.5 128.5t163.5 46.5q94 0 148.5 -37.5t54.5 -104.5q0 -76 -60.5 -121.5 t-167.5 -56.5v-2q83 5 136 -33.5t53 -109.5q0 -95 -72.5 -152t-183.5 -57q-99 0 -157.5 45t-59.5 129z" />
<glyph unicode="&#xb4;" horiz-adv-x="819" d="M324 1075l366 311l29 -40l-373 -299z" />
<glyph unicode="&#xb5;" horiz-adv-x="1019" d="M39 -395l250 1286h49l-100 -518q-17 -100 -17 -137q0 -100 59.5 -153.5t159.5 -53.5q116 0 219 106q103 109 140 289l92 467h49l-174 -891h-51l14 70q4 14 20 91t17 81q-117 -258 -338 -258q-91 0 -154.5 41.5t-83.5 115.5l-102 -536h-49z" />
<glyph unicode="&#xb6;" horiz-adv-x="1075" d="M137 842q0 173 142 288q138 111 383 111h450l-6 -43h-375l-264 -1370h-49l129 659q-196 0 -303 89t-107 266zM176 -135q0 48 10 100h45q-8 -65 -8 -96q0 -99 53.5 -149t145.5 -50q200 0 250 244l227 1145h49l-227 -1145q-58 -289 -303 -289q-108 0 -175 61.5t-67 178.5z " />
<glyph unicode="&#xb7;" horiz-adv-x="419" d="M170 524q0 25 20 44.5t46 19.5q49 0 49 -49q0 -26 -20 -45t-46 -19q-49 0 -49 49z" />
<glyph unicode="&#xb8;" horiz-adv-x="819" d="M248 -283l24 31q39 -39 95 -39q38 0 63 21t25 55q0 68 -113 68q-37 0 -55 -3l96 170h39l-70 -131q71 0 110.5 -27t39.5 -75q0 -46 -39 -81.5t-98 -35.5q-73 0 -117 47z" />
<glyph unicode="&#xb9;" horiz-adv-x="399" d="M145 1137l217 104h46l-123 -635h-45l112 584l-192 -88z" />
<glyph unicode="&#xba;" horiz-adv-x="704" d="M106 518l9 35h520l-8 -35h-521zM203 907q0 141 82 242q78 100 204 100q99 0 156 -59t57 -158q0 -125 -77 -231q-79 -107 -213 -107q-97 0 -153 57.5t-56 155.5zM246 911q0 -86 45 -134t125 -48q102 0 174 90q69 87 69 207q0 88 -46 138t-126 50q-102 0 -172 -88 q-69 -87 -69 -215z" />
<glyph unicode="&#xbb;" horiz-adv-x="878" d="M43 219l350 268v7l-241 264l30 33l279 -289l-6 -33l-392 -289zM385 219l350 268v7l-241 264l30 33l279 -289l-6 -33l-391 -289z" />
<glyph unicode="&#xbc;" horiz-adv-x="1398" d="M145 1137l217 104h46l-123 -635h-45l112 584l-192 -88zM147 0l1049 1239h51l-1048 -1239h-52zM811 195l8 43l430 397h56l-78 -404h131l-8 -36h-131l-37 -195h-43l37 195h-365zM874 231h310l67 351h-4z" />
<glyph unicode="&#xbd;" horiz-adv-x="1460" d="M145 1137l217 104h46l-123 -635h-45l112 584l-192 -88zM147 0l1049 1239h51l-1048 -1239h-52zM846 0l8 41l217 147q22 15 49 34t43.5 30.5t26.5 17.5q24 17 80 66q45 40 62.5 73.5t17.5 73.5q0 61 -45.5 96t-118.5 35q-96 0 -145.5 -44t-49.5 -121h-45q0 100 65 153 t177 53q90 0 150.5 -46t60.5 -122q0 -47 -21 -87.5t-73 -84.5q-45 -40 -91 -73q-71 -51 -122 -86l-164 -113h409l-8 -43h-483z" />
<glyph unicode="&#xbe;" horiz-adv-x="1480" d="M102 760l45 2q1 -65 48.5 -100t123.5 -35q91 0 150 44.5t59 116.5q0 114 -163 123q-44 0 -74 -6l4 43q143 19 206.5 57.5t63.5 110.5q0 48 -43.5 76.5t-111.5 28.5q-164 0 -185 -136h-45q8 82 68.5 128.5t163.5 46.5q94 0 148 -37.5t54 -104.5q0 -76 -60 -121.5 t-167 -56.5v-2q83 5 135.5 -33.5t52.5 -109.5q0 -95 -72.5 -152t-183.5 -57q-99 0 -157.5 45t-59.5 129zM256 0l1049 1239h51l-1049 -1239h-51zM893 195l8 43l430 397h55l-77 -404h131l-8 -36h-132l-36 -195h-43l36 195h-364zM956 231h310l67 351h-4z" />
<glyph unicode="&#xbf;" d="M-20 -66q0 83 58 158.5t146 122.5q67 39 195 88q150 59 214 110t64 107q0 96 -112 96q-60 0 -131 -47l-23 37q73 58 160 58q74 0 117 -36.5t43 -97.5q0 -78 -74.5 -141t-245.5 -129q-189 -72 -274.5 -146t-85.5 -180q0 -105 82 -165t233 -60q162 0 272 90q104 91 107 228 l51 4q0 -147 -117 -258q-121 -109 -313 -109q-171 0 -268.5 72.5t-97.5 197.5zM543 915q0 26 19.5 45t45.5 19q49 0 49 -49q0 -25 -19.5 -44.5t-45.5 -19.5q-49 0 -49 49z" />
<glyph unicode="&#xc0;" horiz-adv-x="1093" d="M-47 0l715 1241h69l230 -1241h-52l-79 440h-576l-254 -440h-53zM287 487h540l-129 703h-8zM510 1653l35 39l299 -312l-27 -26z" />
<glyph unicode="&#xc1;" horiz-adv-x="1093" d="M-47 0l715 1241h69l230 -1241h-52l-79 440h-576l-254 -440h-53zM287 487h540l-129 703h-8zM604 1380l367 312l28 -41l-372 -299z" />
<glyph unicode="&#xc2;" horiz-adv-x="1093" d="M-47 0l715 1241h69l230 -1241h-52l-79 440h-576l-254 -440h-53zM287 487h540l-129 703h-8zM471 1366l279 303h49l170 -299l-35 -16l-164 266h-2l-260 -268z" />
<glyph unicode="&#xc3;" horiz-adv-x="1093" d="M-47 0l715 1241h69l230 -1241h-52l-79 440h-576l-254 -440h-53zM287 487h540l-129 703h-8zM469 1403q41 158 170 158q62 0 125 -60q61 -61 115 -61q88 0 125 125l40 -6q-41 -160 -167 -160q-71 0 -132 61q-66 60 -108 60q-89 0 -127 -123z" />
<glyph unicode="&#xc4;" horiz-adv-x="1093" d="M-47 0l715 1241h69l230 -1241h-52l-79 440h-576l-254 -440h-53zM287 487h540l-129 703h-8zM537 1464q0 38 37 48q33 10 51 -11q10 -11 8 -28q0 -21 -15 -36.5t-38 -15.5q-19 0 -31 12t-12 31zM850 1464q0 38 37 48q33 10 51 -11q10 -11 8 -28q0 -21 -15 -36.5t-38 -15.5 q-19 0 -31 12t-12 31z" />
<glyph unicode="&#xc5;" horiz-adv-x="1093" d="M-47 0l715 1241h69l230 -1241h-52l-79 440h-576l-254 -440h-53zM287 487h540l-129 703h-8zM588 1501q0 73 51 119.5t127 46.5q63 0 106 -38t43 -95q0 -73 -51 -119.5t-127 -46.5q-63 0 -106 38t-43 95zM633 1501q0 -43 29.5 -69.5t78.5 -26.5q55 0 92 36.5t37 92.5 q0 43 -29.5 69.5t-78.5 26.5q-56 0 -92.5 -37t-36.5 -92z" />
<glyph unicode="&#xc6;" horiz-adv-x="1630" d="M-66 0l773 1241h997l-10 -45h-686l-107 -541h586l-8 -45h-586l-111 -565h695l-11 -45h-743l90 463h-537l-288 -463h-54zM305 510h516l135 684h-225z" />
<glyph unicode="&#xc7;" horiz-adv-x="1296" d="M156 514q0 302 184 522q185 221 451 221q193 0 313 -108q121 -109 121 -291q0 -37 -2 -47h-47v41q0 166 -106 263t-284 97q-242 0 -409 -206q-168 -204 -168 -484q0 -226 123 -358q120 -135 325 -135q159 0 279 84t174 237l47 -6q-51 -166 -186.5 -263t-313.5 -97 l-49 -95q71 0 110.5 -27t39.5 -75q0 -46 -39 -81.5t-98 -35.5q-73 0 -117 47l24 31q39 -39 95 -39q38 0 63 21t25 55q0 68 -113 68q-37 0 -55 -3l75 134q-208 12 -333 155q-129 144 -129 375z" />
<glyph unicode="&#xc8;" horiz-adv-x="1005" d="M96 0l242 1241h739l-10 -45h-686l-107 -541h586l-8 -45h-586l-110 -565h694l-10 -45h-744zM506 1653l35 39l299 -312l-27 -26z" />
<glyph unicode="&#xc9;" horiz-adv-x="1005" d="M96 0l242 1241h739l-10 -45h-686l-107 -541h586l-8 -45h-586l-110 -565h694l-10 -45h-744zM600 1380l367 312l28 -41l-372 -299z" />
<glyph unicode="&#xca;" horiz-adv-x="1005" d="M96 0l242 1241h739l-10 -45h-686l-107 -541h586l-8 -45h-586l-110 -565h694l-10 -45h-744zM467 1366l278 303h50l170 -299l-35 -16l-164 266h-2l-260 -268z" />
<glyph unicode="&#xcb;" horiz-adv-x="1005" d="M96 0l242 1241h739l-10 -45h-686l-107 -541h586l-8 -45h-586l-110 -565h694l-10 -45h-744zM532 1464q0 37 37 48q33 10 52 -11q10 -11 8 -28q0 -21 -15.5 -36.5t-38.5 -15.5q-19 0 -31 12t-12 31zM846 1464q0 38 37 48q33 10 51 -11q10 -11 8 -28q0 -21 -15 -36.5 t-38 -15.5q-19 0 -31 12t-12 31z" />
<glyph unicode="&#xcc;" horiz-adv-x="415" d="M96 0l242 1241h51l-242 -1241h-51zM174 1653l35 39l299 -312l-27 -26z" />
<glyph unicode="&#xcd;" horiz-adv-x="415" d="M96 0l242 1241h51l-242 -1241h-51zM268 1380l367 312l29 -41l-373 -299z" />
<glyph unicode="&#xce;" horiz-adv-x="415" d="M96 0l242 1241h51l-242 -1241h-51zM135 1366l279 303h49l170 -299l-35 -16l-164 266h-2l-260 -268z" />
<glyph unicode="&#xcf;" horiz-adv-x="415" d="M96 0l242 1241h51l-242 -1241h-51zM201 1464q0 38 37 48q33 10 51 -11q10 -11 8 -28q0 -21 -15 -36.5t-38 -15.5q-19 0 -31 12t-12 31zM514 1464q0 38 37 48q33 10 51 -11q10 -11 8 -28q0 -21 -15 -36.5t-38 -15.5q-19 0 -31 12t-12 31z" />
<glyph unicode="&#xd0;" horiz-adv-x="1284" d="M39 608l8 45h176l115 588h354q224 0 371 -135q145 -136 145 -393q0 -288 -200 -500q-204 -213 -480 -213h-432l119 608h-176zM156 45h374q257 0 441 199q182 200 182 467q0 234 -129 360q-131 125 -332 125h-311l-107 -543h353l-9 -45h-352z" />
<glyph unicode="&#xd1;" horiz-adv-x="1261" d="M96 0l242 1241h57l461 -942l105 -215h4l223 1157h47l-242 -1241h-45l-573 1174h-4l-228 -1174h-47zM537 1403q41 158 170 158q61 0 124 -60q61 -61 115 -61q88 0 125 125l41 -6q-41 -160 -168 -160q-70 0 -131 61q-66 60 -108 60q-89 0 -127 -123z" />
<glyph unicode="&#xd2;" horiz-adv-x="1402" d="M154 512q0 310 188 528q187 217 465 217q224 0 369 -151t145 -377q0 -308 -188 -526q-192 -219 -463 -219q-230 0 -373 149q-143 146 -143 379zM207 520q0 -215 127 -354q125 -137 340 -137q248 0 422 204q172 205 172 488q0 213 -127 352q-130 139 -342 139 q-251 0 -420 -202q-172 -205 -172 -490zM623 1653l34 39l299 -312l-26 -26z" />
<glyph unicode="&#xd3;" horiz-adv-x="1402" d="M154 512q0 310 188 528q187 217 465 217q224 0 369 -151t145 -377q0 -308 -188 -526q-192 -219 -463 -219q-230 0 -373 149q-143 146 -143 379zM207 520q0 -215 127 -354q125 -137 340 -137q248 0 422 204q172 205 172 488q0 213 -127 352q-130 139 -342 139 q-251 0 -420 -202q-172 -205 -172 -490zM717 1380l366 312l29 -41l-373 -299z" />
<glyph unicode="&#xd4;" horiz-adv-x="1402" d="M154 512q0 310 188 528q187 217 465 217q224 0 369 -151t145 -377q0 -308 -188 -526q-192 -219 -463 -219q-230 0 -373 149q-143 146 -143 379zM207 520q0 -215 127 -354q125 -137 340 -137q248 0 422 204q172 205 172 488q0 213 -127 352q-130 139 -342 139 q-251 0 -420 -202q-172 -205 -172 -490zM584 1366l278 303h49l170 -299l-34 -16l-164 266h-2l-260 -268z" />
<glyph unicode="&#xd5;" horiz-adv-x="1402" d="M154 512q0 310 188 528q187 217 465 217q224 0 369 -151t145 -377q0 -308 -188 -526q-192 -219 -463 -219q-230 0 -373 149q-143 146 -143 379zM207 520q0 -215 127 -354q125 -137 340 -137q248 0 422 204q172 205 172 488q0 213 -127 352q-130 139 -342 139 q-251 0 -420 -202q-172 -205 -172 -490zM582 1403q41 158 170 158q62 0 125 -60q61 -61 114 -61q88 0 125 125l41 -6q-41 -160 -168 -160q-70 0 -131 61q-66 60 -108 60q-90 0 -127 -123z" />
<glyph unicode="&#xd6;" horiz-adv-x="1402" d="M154 512q0 310 188 528q187 217 465 217q224 0 369 -151t145 -377q0 -308 -188 -526q-192 -219 -463 -219q-230 0 -373 149q-143 146 -143 379zM207 520q0 -215 127 -354q125 -137 340 -137q248 0 422 204q172 205 172 488q0 213 -127 352q-130 139 -342 139 q-251 0 -420 -202q-172 -205 -172 -490zM649 1464q0 38 37 48q33 10 51 -11q10 -11 8 -28q0 -21 -15 -36.5t-38 -15.5q-19 0 -31 12t-12 31zM963 1464q0 38 37 48q33 10 51 -11q10 -11 8 -28q0 -21 -15 -36.5t-38 -15.5q-19 0 -31 12t-12 31z" />
<glyph unicode="&#xd7;" d="M117 219l342 285l-230 284l31 27l229 -285l340 285l25 -31l-340 -284l229 -285l-30 -27l-230 285l-342 -285z" />
<glyph unicode="&#xd8;" horiz-adv-x="1402" d="M86 16l166 170q-98 137 -98 326q0 310 188 528q187 217 465 217q214 0 358 -141l146 148l32 -31l-147 -150q125 -143 125 -354q0 -308 -188 -526q-192 -219 -463 -219q-243 0 -389 168l-162 -166zM207 520q0 -175 82 -297l841 858q-125 131 -331 131q-251 0 -420 -202 q-172 -205 -172 -490zM315 186q130 -157 359 -157q248 0 422 204q172 205 172 488q0 195 -107 326z" />
<glyph unicode="&#xd9;" horiz-adv-x="1189" d="M162 319q0 63 10 121l152 801h51l-152 -801q-10 -55 -10 -114q0 -141 82.5 -219t234.5 -78q168 0 284.5 105t152.5 298l157 809h52l-158 -807q-42 -219 -171.5 -334.5t-322.5 -115.5q-169 0 -265.5 90t-96.5 245zM549 1653l35 39l299 -312l-27 -26z" />
<glyph unicode="&#xda;" horiz-adv-x="1189" d="M162 319q0 63 10 121l152 801h51l-152 -801q-10 -55 -10 -114q0 -141 82.5 -219t234.5 -78q168 0 284.5 105t152.5 298l157 809h52l-158 -807q-42 -219 -171.5 -334.5t-322.5 -115.5q-169 0 -265.5 90t-96.5 245zM643 1380l367 312l28 -41l-372 -299z" />
<glyph unicode="&#xdb;" horiz-adv-x="1189" d="M162 319q0 63 10 121l152 801h51l-152 -801q-10 -55 -10 -114q0 -141 82.5 -219t234.5 -78q168 0 284.5 105t152.5 298l157 809h52l-158 -807q-42 -219 -171.5 -334.5t-322.5 -115.5q-169 0 -265.5 90t-96.5 245zM510 1366l278 303h50l170 -299l-35 -16l-164 266h-2 l-260 -268z" />
<glyph unicode="&#xdc;" horiz-adv-x="1189" d="M162 319q0 63 10 121l152 801h51l-152 -801q-10 -55 -10 -114q0 -141 82.5 -219t234.5 -78q168 0 284.5 105t152.5 298l157 809h52l-158 -807q-42 -219 -171.5 -334.5t-322.5 -115.5q-169 0 -265.5 90t-96.5 245zM575 1464q0 37 37 48q33 10 52 -11q10 -11 8 -28 q0 -21 -15.5 -36.5t-38.5 -15.5q-19 0 -31 12t-12 31zM889 1464q0 38 37 48q33 10 51 -11q10 -11 8 -28q0 -21 -15 -36.5t-38 -15.5q-19 0 -31 12t-12 31z" />
<glyph unicode="&#xdd;" horiz-adv-x="1021" d="M162 1241h55l297 -686h4l569 686h60l-617 -745l-96 -496h-51l98 506zM549 1380l366 312l29 -41l-373 -299z" />
<glyph unicode="&#xde;" horiz-adv-x="1054" d="M96 0l242 1241h51l-43 -221h336q162 0 253 -73t91 -212q0 -159 -121 -268q-124 -109 -313 -109h-375l-70 -358h-51zM225 403h375q159 0 268 95q105 92 105 233q0 120 -75 182t-216 62h-344z" />
<glyph unicode="&#xdf;" horiz-adv-x="1193" d="M-215 -336l27 39q41 -28 87.5 -35.5t92.5 6.5t82 67t49 140l188 967h-168l11 43h139q27 0 33 29l16 75q34 156 157 238t296 82q141 0 232 -60t91 -157q0 -102 -90 -158q-44 -29 -79 -45t-107 -43q-86 -34 -124.5 -53.5t-72.5 -53.5q-37 -37 -37 -83q0 -47 33 -86.5 t74 -59.5q75 -33 110 -45q68 -27 98.5 -41.5t69.5 -40.5q76 -51 76 -153q0 -111 -90 -181.5t-227 -70.5q-247 0 -312 206l43 19q25 -85 98.5 -133.5t176.5 -48.5q114 0 187 56t73 148q0 81 -68 129q-59 40 -145 72q-56 20 -74 31q-8 3 -63 31q-45 20 -62 41q-49 53 -49 122 q0 78 58 125.5t208 106.5q77 29 138 61q42 22 59 39q47 51 47 109q0 74 -77 124t-195 50q-147 0 -263 -70q-118 -71 -145 -215l-217 -1110q-28 -141 -87.5 -199.5t-160.5 -58.5q-83 0 -137 45z" />
<glyph unicode="&#xe0;" horiz-adv-x="1028" d="M86 356q0 212 139 383q138 166 318 166q117 0 199.5 -64t105.5 -173l49 223h43l-172 -891h-45l41 225q-61 -112 -155 -176.5t-193 -64.5q-152 0 -241 97.5t-89 274.5zM137 362q0 -162 76 -248.5t209 -86.5q150 0 274 161q125 162 125 357q0 148 -79.5 232.5t-202.5 84.5 q-162 0 -281 -155q-121 -157 -121 -345zM379 1325l35 39l299 -311l-27 -27z" />
<glyph unicode="&#xe1;" horiz-adv-x="1028" d="M86 356q0 212 139 383q138 166 318 166q117 0 199.5 -64t105.5 -173l49 223h43l-172 -891h-45l41 225q-61 -112 -155 -176.5t-193 -64.5q-152 0 -241 97.5t-89 274.5zM137 362q0 -162 76 -248.5t209 -86.5q150 0 274 161q125 162 125 357q0 148 -79.5 232.5t-202.5 84.5 q-162 0 -281 -155q-121 -157 -121 -345zM473 1053l367 311l28 -41l-372 -299z" />
<glyph unicode="&#xe2;" horiz-adv-x="1028" d="M86 356q0 212 139 383q138 166 318 166q117 0 199.5 -64t105.5 -173l49 223h43l-172 -891h-45l41 225q-61 -112 -155 -176.5t-193 -64.5q-152 0 -241 97.5t-89 274.5zM137 362q0 -162 76 -248.5t209 -86.5q150 0 274 161q125 162 125 357q0 148 -79.5 232.5t-202.5 84.5 q-162 0 -281 -155q-121 -157 -121 -345zM340 1038l278 303h50l170 -299l-35 -16l-164 266h-2l-260 -268z" />
<glyph unicode="&#xe3;" horiz-adv-x="1028" d="M86 356q0 212 139 383q138 166 318 166q117 0 199.5 -64t105.5 -173l49 223h43l-172 -891h-45l41 225q-61 -112 -155 -176.5t-193 -64.5q-152 0 -241 97.5t-89 274.5zM137 362q0 -162 76 -248.5t209 -86.5q150 0 274 161q125 162 125 357q0 148 -79.5 232.5t-202.5 84.5 q-162 0 -281 -155q-121 -157 -121 -345zM338 1075q41 158 170 158q63 0 125 -59q62 -62 115 -62q87 0 124 125l41 -6q-41 -160 -168 -160q-69 0 -131 62q-65 59 -108 59q-90 0 -127 -123z" />
<glyph unicode="&#xe4;" horiz-adv-x="1028" d="M86 356q0 212 139 383q138 166 318 166q117 0 199.5 -64t105.5 -173l49 223h43l-172 -891h-45l41 225q-61 -112 -155 -176.5t-193 -64.5q-152 0 -241 97.5t-89 274.5zM137 362q0 -162 76 -248.5t209 -86.5q150 0 274 161q125 162 125 357q0 148 -79.5 232.5t-202.5 84.5 q-162 0 -281 -155q-121 -157 -121 -345zM406 1137q0 38 37 48q33 9 51 -11q10 -12 8 -29q0 -21 -15 -36t-38 -15q-19 0 -31 12t-12 31zM719 1137q0 38 37 48q33 9 51 -11q10 -12 8 -29q0 -21 -15 -36t-38 -15q-19 0 -31 12t-12 31z" />
<glyph unicode="&#xe5;" horiz-adv-x="1028" d="M86 356q0 212 139 383q138 166 318 166q117 0 199.5 -64t105.5 -173l49 223h43l-172 -891h-45l41 225q-61 -112 -155 -176.5t-193 -64.5q-152 0 -241 97.5t-89 274.5zM137 362q0 -162 76 -248.5t209 -86.5q150 0 274 161q125 162 125 357q0 148 -79.5 232.5t-202.5 84.5 q-162 0 -281 -155q-121 -157 -121 -345zM457 1174q0 73 51 119t127 46q63 0 106 -38t43 -95q0 -73 -51 -119.5t-127 -46.5q-63 0 -106 38.5t-43 95.5zM502 1174q0 -43 29.5 -70t78.5 -27q56 0 92.5 36.5t36.5 92.5q0 43 -29.5 70t-78.5 27q-55 0 -92 -36.5t-37 -92.5z" />
<glyph unicode="&#xe6;" horiz-adv-x="1579" d="M70 207q0 123 102.5 195.5t269.5 72.5h295q29 132 29 189q0 95 -64 148.5t-170 53.5q-261 0 -301 -233h-49q20 133 114.5 202.5t240.5 69.5q130 0 205.5 -64t68.5 -184q143 248 381 248q138 0 219.5 -80.5t81.5 -210.5q0 -90 -18 -157h-693q-8 -36 -8 -92 q0 -156 76.5 -247t202.5 -91q238 0 340 227l45 -6q-108 -264 -387 -264q-132 0 -218.5 81t-99.5 230q-123 -311 -403 -311q-117 0 -188.5 59.5t-71.5 163.5zM121 209q0 -89 59.5 -135.5t159.5 -46.5q137 0 243 104t146 301h-283q-157 0 -241 -59.5t-84 -163.5zM793 500h643 q8 39 8 110q0 112 -69 182t-189 70q-137 0 -244 -104q-109 -109 -149 -258z" />
<glyph unicode="&#xe7;" horiz-adv-x="929" d="M86 348q0 216 133 387q132 170 334 170q134 0 220.5 -71.5t86.5 -186.5q0 -43 -2 -57l-49 2q2 8 2 37q0 110 -71.5 171.5t-186.5 61.5q-181 0 -299 -157q-117 -156 -117 -349q0 -154 77.5 -241.5t211.5 -87.5q214 0 328 239l43 -8q-114 -274 -381 -274l-49 -95 q71 0 110 -27t39 -75q0 -46 -39 -81.5t-98 -35.5q-73 0 -117 47l25 31q39 -39 94 -39q38 0 63 21t25 55q0 68 -113 68q-37 0 -55 -3l76 136q-128 12 -209.5 109.5t-81.5 252.5z" />
<glyph unicode="&#xe8;" horiz-adv-x="952" d="M88 369q0 209 135 372q132 164 332 164q141 0 226 -85.5t85 -223.5q0 -70 -16 -139h-705q-6 -41 -6 -78q0 -165 78.5 -258.5t214.5 -93.5q223 0 334 217l43 -8q-120 -252 -389 -252q-142 0 -236 104q-96 107 -96 281zM154 500h655q8 39 8 92q0 121 -70.5 195.5 t-195.5 74.5q-143 0 -250 -104q-109 -106 -147 -258zM369 1325l34 39l299 -311l-26 -27z" />
<glyph unicode="&#xe9;" horiz-adv-x="952" d="M88 369q0 209 135 372q132 164 332 164q141 0 226 -85.5t85 -223.5q0 -70 -16 -139h-705q-6 -41 -6 -78q0 -165 78.5 -258.5t214.5 -93.5q223 0 334 217l43 -8q-120 -252 -389 -252q-142 0 -236 104q-96 107 -96 281zM154 500h655q8 39 8 92q0 121 -70.5 195.5 t-195.5 74.5q-143 0 -250 -104q-109 -106 -147 -258zM463 1053l366 311l29 -41l-373 -299z" />
<glyph unicode="&#xea;" horiz-adv-x="952" d="M88 369q0 209 135 372q132 164 332 164q141 0 226 -85.5t85 -223.5q0 -70 -16 -139h-705q-6 -41 -6 -78q0 -165 78.5 -258.5t214.5 -93.5q223 0 334 217l43 -8q-120 -252 -389 -252q-142 0 -236 104q-96 107 -96 281zM154 500h655q8 39 8 92q0 121 -70.5 195.5 t-195.5 74.5q-143 0 -250 -104q-109 -106 -147 -258zM330 1038l278 303h49l170 -299l-34 -16l-164 266h-2l-260 -268z" />
<glyph unicode="&#xeb;" horiz-adv-x="952" d="M88 369q0 209 135 372q132 164 332 164q141 0 226 -85.5t85 -223.5q0 -70 -16 -139h-705q-6 -41 -6 -78q0 -165 78.5 -258.5t214.5 -93.5q223 0 334 217l43 -8q-120 -252 -389 -252q-142 0 -236 104q-96 107 -96 281zM154 500h655q8 39 8 92q0 121 -70.5 195.5 t-195.5 74.5q-143 0 -250 -104q-109 -106 -147 -258zM395 1137q0 37 37 48q33 9 52 -12q10 -11 8 -28q0 -21 -15.5 -36t-38.5 -15q-19 0 -31 12t-12 31zM709 1137q0 38 37 48q33 9 51 -11q10 -12 8 -29q0 -21 -15 -36t-38 -15q-19 0 -31 12t-12 31z" />
<glyph unicode="&#xec;" horiz-adv-x="397" d="M86 0l174 891h49l-174 -891h-49zM98 1325l35 39l299 -311l-26 -27z" />
<glyph unicode="&#xed;" horiz-adv-x="397" d="M86 0l174 891h49l-174 -891h-49zM193 1053l366 311l29 -41l-373 -299z" />
<glyph unicode="&#xee;" horiz-adv-x="397" d="M59 1038l279 303h49l170 -299l-35 -16l-164 266h-2l-260 -268zM86 0l174 891h49l-174 -891h-49z" />
<glyph unicode="&#xef;" horiz-adv-x="397" d="M86 0l174 891h49l-174 -891h-49zM125 1137q0 38 37 48q33 9 51 -11q10 -12 8 -29q0 -21 -15 -36t-38 -15q-19 0 -31 12t-12 31zM438 1137q0 37 37 48q33 9 52 -12q10 -11 8 -28q0 -21 -15.5 -36t-38.5 -15q-19 0 -31 12t-12 31z" />
<glyph unicode="&#xf0;" horiz-adv-x="1021" d="M90 373q0 213 139 364q138 150 324 150q118 0 209 -65t117 -173q9 354 -160 510l-287 -151l-18 34l272 146q-118 86 -317 98l10 41q222 -15 348 -117l221 117l23 -35l-211 -110q166 -159 166 -508q0 -304 -135 -498q-137 -192 -355 -192q-161 0 -253.5 105t-92.5 284z M141 373q0 -159 80.5 -252.5t222.5 -93.5q171 0 293 155q121 154 121 342q0 156 -94 238t-215 82q-166 0 -287 -139q-121 -142 -121 -332z" />
<glyph unicode="&#xf1;" horiz-adv-x="985" d="M86 0l174 891h49l-14 -70q-4 -23 -17.5 -84t-19.5 -90q117 258 348 258q118 0 191 -64.5t73 -178.5q0 -49 -14 -123l-104 -539h-50l101 520q16 75 16 135q0 100 -61.5 152.5t-163.5 52.5q-117 0 -223 -106q-110 -110 -144 -287l-92 -467h-49zM344 1075q41 158 170 158 q63 0 125 -59q62 -62 115 -62q88 0 125 125l41 -6q-41 -160 -168 -160q-69 0 -131 62q-65 59 -109 59q-90 0 -127 -123z" />
<glyph unicode="&#xf2;" horiz-adv-x="974" d="M88 360q0 216 139 381q138 164 324 164q159 0 247.5 -99t88.5 -276q0 -221 -137 -383q-138 -163 -336 -163q-150 0 -238 99t-88 277zM139 362q0 -158 77.5 -246.5t203.5 -88.5q171 0 293 155q123 156 123 346q0 157 -78 245.5t-209 88.5q-167 0 -287 -153 q-123 -156 -123 -347zM371 1325l35 39l299 -311l-27 -27z" />
<glyph unicode="&#xf3;" horiz-adv-x="974" d="M88 360q0 216 139 381q138 164 324 164q159 0 247.5 -99t88.5 -276q0 -221 -137 -383q-138 -163 -336 -163q-150 0 -238 99t-88 277zM139 362q0 -158 77.5 -246.5t203.5 -88.5q171 0 293 155q123 156 123 346q0 157 -78 245.5t-209 88.5q-167 0 -287 -153 q-123 -156 -123 -347zM465 1053l366 311l29 -41l-373 -299z" />
<glyph unicode="&#xf4;" horiz-adv-x="974" d="M88 360q0 216 139 381q138 164 324 164q159 0 247.5 -99t88.5 -276q0 -221 -137 -383q-138 -163 -336 -163q-150 0 -238 99t-88 277zM139 362q0 -158 77.5 -246.5t203.5 -88.5q171 0 293 155q123 156 123 346q0 157 -78 245.5t-209 88.5q-167 0 -287 -153 q-123 -156 -123 -347zM332 1038l278 303h49l170 -299l-34 -16l-164 266h-2l-260 -268z" />
<glyph unicode="&#xf5;" horiz-adv-x="974" d="M88 360q0 216 139 381q138 164 324 164q159 0 247.5 -99t88.5 -276q0 -221 -137 -383q-138 -163 -336 -163q-150 0 -238 99t-88 277zM139 362q0 -158 77.5 -246.5t203.5 -88.5q171 0 293 155q123 156 123 346q0 157 -78 245.5t-209 88.5q-167 0 -287 -153 q-123 -156 -123 -347zM330 1075q41 158 170 158q63 0 125 -59q62 -62 114 -62q88 0 125 125l41 -6q-41 -160 -168 -160q-69 0 -131 62q-65 59 -108 59q-90 0 -127 -123z" />
<glyph unicode="&#xf6;" horiz-adv-x="974" d="M88 360q0 216 139 381q138 164 324 164q159 0 247.5 -99t88.5 -276q0 -221 -137 -383q-138 -163 -336 -163q-150 0 -238 99t-88 277zM139 362q0 -158 77.5 -246.5t203.5 -88.5q171 0 293 155q123 156 123 346q0 157 -78 245.5t-209 88.5q-167 0 -287 -153 q-123 -156 -123 -347zM397 1137q0 37 37 48q33 9 52 -12q10 -11 8 -28q0 -21 -15.5 -36t-38.5 -15q-19 0 -31 12t-12 31zM711 1137q0 38 37 48q33 9 51 -11q10 -12 8 -29q0 -21 -15 -36t-38 -15q-19 0 -31 12t-12 31z" />
<glyph unicode="&#xf7;" d="M119 494l8 41h754l-9 -41h-753zM383 199q0 23 19 42t44 19q20 0 34 -13.5t14 -33.5q0 -25 -19 -43t-45 -18q-20 0 -33.5 13.5t-13.5 33.5zM504 815q0 23 19 42.5t44 19.5q20 0 33.5 -14t13.5 -34q0 -25 -18.5 -43t-44.5 -18q-20 0 -33.5 13.5t-13.5 33.5z" />
<glyph unicode="&#xf8;" horiz-adv-x="954" d="M49 -8l94 104q-75 100 -75 264q0 216 139 381q138 164 323 164q164 0 252 -104l92 102l31 -26l-98 -109q59 -95 59 -238q0 -221 -137 -383q-138 -163 -336 -163q-136 0 -221 82l-92 -101zM119 362q0 -139 61 -227l568 627q-75 100 -220 100q-166 0 -286 -153 q-123 -156 -123 -347zM207 104q74 -77 192 -77q171 0 293 155q123 156 123 346q0 122 -45 199z" />
<glyph unicode="&#xf9;" d="M121 229q0 52 14 123l105 539h49l-101 -520q-16 -88 -16 -135q0 -100 59.5 -153.5t159.5 -53.5q116 0 219 106q106 109 140 289l92 467h49l-174 -891h-51l14 70q2 9 37 172q-117 -258 -338 -258q-118 0 -188 64.5t-70 180.5zM369 1325l34 39l299 -311l-26 -27z" />
<glyph unicode="&#xfa;" d="M121 229q0 52 14 123l105 539h49l-101 -520q-16 -88 -16 -135q0 -100 59.5 -153.5t159.5 -53.5q116 0 219 106q106 109 140 289l92 467h49l-174 -891h-51l14 70q2 9 37 172q-117 -258 -338 -258q-118 0 -188 64.5t-70 180.5zM463 1053l366 311l29 -41l-373 -299z" />
<glyph unicode="&#xfb;" d="M121 229q0 52 14 123l105 539h49l-101 -520q-16 -88 -16 -135q0 -100 59.5 -153.5t159.5 -53.5q116 0 219 106q106 109 140 289l92 467h49l-174 -891h-51l14 70q2 9 37 172q-117 -258 -338 -258q-118 0 -188 64.5t-70 180.5zM330 1038l278 303h49l170 -299l-34 -16 l-164 266h-2l-260 -268z" />
<glyph unicode="&#xfc;" d="M121 229q0 52 14 123l105 539h49l-101 -520q-16 -88 -16 -135q0 -100 59.5 -153.5t159.5 -53.5q116 0 219 106q106 109 140 289l92 467h49l-174 -891h-51l14 70q2 9 37 172q-117 -258 -338 -258q-118 0 -188 64.5t-70 180.5zM395 1137q0 37 37 48q33 9 52 -12 q10 -11 8 -28q0 -21 -15.5 -36t-38.5 -15q-19 0 -31 12t-12 31zM709 1137q0 38 37 48q33 9 51 -11q10 -12 8 -29q0 -21 -15 -36t-38 -15q-19 0 -31 12t-12 31z" />
<glyph unicode="&#xfd;" horiz-adv-x="837" d="M-121 -344l35 37q26 -45 90 -45q88 0 176 149l144 240h-15l-203 854h52l184 -799h10l469 799h51l-657 -1120q-102 -170 -209 -170q-90 0 -127 55zM387 1053l367 311l28 -41l-372 -299z" />
<glyph unicode="&#xfe;" horiz-adv-x="1030" d="M4 -395l332 1702h49l-96 -496l-35 -160q63 117 161 185.5t201 68.5q152 0 241 -97t89 -273q0 -217 -141 -383q-140 -168 -322 -168q-119 0 -203.5 68.5t-103.5 180.5l-123 -628h-49zM205 342q0 -150 78.5 -232.5t203.5 -82.5q163 0 287 157q121 157 121 348 q0 159 -76 244.5t-207 85.5q-155 0 -280 -162q-127 -165 -127 -358z" />
<glyph unicode="&#xff;" horiz-adv-x="837" d="M-121 -344l35 37q26 -45 90 -45q88 0 176 149l144 240h-15l-203 854h52l184 -799h10l469 799h51l-657 -1120q-102 -170 -209 -170q-90 0 -127 55zM319 1137q0 37 37 48q33 9 52 -12q10 -11 8 -28q0 -21 -15.5 -36t-38.5 -15q-19 0 -31 12t-12 31zM633 1137q0 38 37 48 q33 9 51 -11q10 -12 8 -29q0 -21 -15 -36t-38 -15q-19 0 -31 12t-12 31z" />
<glyph unicode="&#x152;" horiz-adv-x="1843" d="M139 543q0 283 205 491q207 207 494 207h1077l-10 -45h-686l-107 -541h586l-8 -45h-586l-111 -565h695l-11 -45h-991q-241 0 -393 137q-154 139 -154 406zM195 545q0 -246 139 -373t358 -127h250l225 1151h-331q-264 0 -453 -195q-188 -194 -188 -456z" />
<glyph unicode="&#x153;" horiz-adv-x="1683" d="M88 360q0 216 139 381q138 164 324 164q137 0 223 -77.5t103 -223.5q138 301 411 301q141 0 226 -85.5t85 -223.5q0 -70 -16 -139h-704q-7 -47 -7 -78q0 -165 78.5 -258.5t214.5 -93.5q223 0 334 217l43 -8q-120 -252 -389 -252q-125 0 -214.5 82t-109.5 225 q-63 -144 -172.5 -225.5t-242.5 -81.5q-150 0 -238 99t-88 277zM139 362q0 -158 77.5 -246.5t203.5 -88.5q171 0 293 155q123 156 123 346q0 157 -78 245.5t-209 88.5q-167 0 -287 -153q-123 -156 -123 -347zM887 500h655q8 39 8 92q0 121 -70.5 195.5t-195.5 74.5 q-143 0 -250 -104q-109 -106 -147 -258z" />
<glyph unicode="&#x178;" horiz-adv-x="1021" d="M162 1241h55l297 -686h4l569 686h60l-617 -745l-96 -496h-51l98 506zM481 1464q0 37 37 48q33 10 52 -11q10 -11 8 -28q0 -21 -15.5 -36.5t-38.5 -15.5q-19 0 -31 12t-12 31zM795 1464q0 38 37 48q33 10 51 -11q10 -11 8 -28q0 -21 -15 -36.5t-38 -15.5q-19 0 -31 12 t-12 31z" />
<glyph unicode="&#x2c6;" horiz-adv-x="819" d="M190 1061l279 303h49l170 -299l-35 -16l-164 266h-2l-260 -268z" />
<glyph unicode="&#x2dc;" horiz-adv-x="819" d="M188 1098q41 157 170 157q63 0 125 -59q61 -61 115 -61q88 0 125 125l41 -7q-40 -159 -168 -159q-70 0 -131 61q-65 59 -109 59q-90 0 -127 -122z" />
<glyph unicode="&#x2000;" horiz-adv-x="846" />
<glyph unicode="&#x2001;" horiz-adv-x="1692" />
<glyph unicode="&#x2002;" horiz-adv-x="846" />
<glyph unicode="&#x2003;" horiz-adv-x="1692" />
<glyph unicode="&#x2004;" horiz-adv-x="564" />
<glyph unicode="&#x2005;" horiz-adv-x="423" />
<glyph unicode="&#x2006;" horiz-adv-x="282" />
<glyph unicode="&#x2007;" horiz-adv-x="282" />
<glyph unicode="&#x2008;" horiz-adv-x="211" />
<glyph unicode="&#x2009;" horiz-adv-x="338" />
<glyph unicode="&#x200a;" horiz-adv-x="94" />
<glyph unicode="&#x2010;" horiz-adv-x="514" d="M76 514l10 49h391l-10 -49h-391z" />
<glyph unicode="&#x2011;" horiz-adv-x="514" d="M76 514l10 49h391l-10 -49h-391z" />
<glyph unicode="&#x2012;" horiz-adv-x="514" d="M76 514l10 49h391l-10 -49h-391z" />
<glyph unicode="&#x2013;" horiz-adv-x="1144" d="M109 524l8 45h960l-8 -45h-960z" />
<glyph unicode="&#x2014;" horiz-adv-x="1882" d="M109 524l8 45h1698l-9 -45h-1697z" />
<glyph unicode="&#x2018;" horiz-adv-x="374" d="M211 1075q0 68 58 124.5t149 68.5l2 -35q-57 -10 -96.5 -38t-54 -59.5t-13.5 -62t18 -47.5q12 39 52 39q20 0 33.5 -12.5t13.5 -32.5q0 -26 -21.5 -44t-52.5 -18q-41 0 -64.5 32.5t-23.5 84.5z" />
<glyph unicode="&#x2019;" horiz-adv-x="374" d="M203 973q57 10 96 38t53.5 59.5t13.5 62t-18 47.5q-12 -39 -51 -39q-20 0 -33.5 12.5t-13.5 32.5q0 26 21.5 43.5t52.5 17.5q41 0 64.5 -32.5t23.5 -84.5q0 -68 -58 -124t-149 -68z" />
<glyph unicode="&#x201a;" horiz-adv-x="374" d="M-20 -174q57 10 96 38t53.5 59.5t13.5 62t-18 47.5q-12 -39 -51 -39q-20 0 -33.5 12.5t-13.5 32.5q0 26 21 43.5t52 17.5q41 0 64.5 -32t23.5 -84q0 -68 -57.5 -124.5t-148.5 -68.5z" />
<glyph unicode="&#x201c;" horiz-adv-x="626" d="M211 1075q0 68 58 124.5t149 68.5l2 -35q-57 -10 -96.5 -38t-54 -59.5t-13.5 -62t18 -47.5q12 39 52 39q20 0 33.5 -12.5t13.5 -32.5q0 -26 -21.5 -44t-52.5 -18q-41 0 -64.5 32.5t-23.5 84.5zM463 1075q0 68 58 124.5t149 68.5l2 -35q-57 -10 -96.5 -38t-54 -59.5 t-13.5 -62t18 -47.5q12 39 52 39q20 0 33.5 -12.5t13.5 -32.5q0 -26 -21.5 -44t-52.5 -18q-41 0 -64.5 32.5t-23.5 84.5z" />
<glyph unicode="&#x201d;" horiz-adv-x="624" d="M203 973q57 10 96 38t53.5 59.5t13.5 62t-18 47.5q-12 -39 -51 -39q-20 0 -33.5 12.5t-13.5 32.5q0 26 21.5 43.5t52.5 17.5q41 0 64.5 -32.5t23.5 -84.5q0 -68 -58 -124t-149 -68zM453 973q57 10 96 38t53.5 59.5t13.5 62t-18 47.5q-12 -39 -51 -39q-20 0 -33.5 12.5 t-13.5 32.5q0 26 21 43.5t52 17.5q41 0 65 -32.5t24 -84.5q0 -68 -58 -124t-149 -68z" />
<glyph unicode="&#x201e;" horiz-adv-x="622" d="M-20 -174q57 10 96 38t53.5 59.5t13.5 62t-18 47.5q-12 -39 -51 -39q-20 0 -33.5 12.5t-13.5 32.5q0 26 21 43.5t52 17.5q41 0 64.5 -32t23.5 -84q0 -68 -57.5 -124.5t-148.5 -68.5zM227 -174q57 10 96.5 38t54 59.5t13.5 62t-18 47.5q-12 -39 -51 -39q-21 0 -34.5 12.5 t-13.5 32.5q0 26 21.5 43.5t52.5 17.5q41 0 64.5 -32t23.5 -84q0 -68 -58 -124.5t-149 -68.5z" />
<glyph unicode="&#x2022;" horiz-adv-x="561" d="M201 535q-6 58 45 82t102 0t45 -82q0 -44 -26 -70q-20 -21 -50.5 -25.5t-57 5.5t-44.5 34.5t-14 55.5z" />
<glyph unicode="&#x2026;" horiz-adv-x="1425" d="M115 39q0 25 19.5 44t45.5 19q49 0 49 -49q0 -26 -19.5 -44.5t-45.5 -18.5q-49 0 -49 49zM569 39q0 25 20 44t46 19q49 0 49 -49q0 -26 -19.5 -44.5t-46.5 -18.5q-49 0 -49 49zM1024 39q0 25 20 44t46 19q49 0 49 -49q0 -26 -19.5 -44.5t-46.5 -18.5q-49 0 -49 49z" />
<glyph unicode="&#x202f;" horiz-adv-x="338" />
<glyph unicode="&#x2039;" horiz-adv-x="536" d="M88 465l6 33l391 288l21 -38l-350 -269v-6l241 -264l-30 -33z" />
<glyph unicode="&#x203a;" horiz-adv-x="536" d="M43 219l350 268v7l-241 264l30 33l279 -289l-6 -33l-392 -289z" />
<glyph unicode="&#x205f;" horiz-adv-x="423" />
<glyph unicode="&#x20ac;" horiz-adv-x="1165" d="M2 416l8 43h170v10q0 105 21 188h-152l8 43h154q58 202 213 320q153 117 346 117q128 0 227.5 -54.5t149.5 -148.5l-41 -23q-103 183 -338 183q-178 0 -313.5 -104.5t-190.5 -289.5h549l-8 -43h-553q-21 -95 -21 -186v-12h535l-8 -43h-525q14 -186 122 -287.5t294 -101.5 q184 0 344 145l27 -33q-165 -155 -373 -155q-212 0 -331.5 114t-133.5 318h-180z" />
<glyph unicode="&#x2122;" horiz-adv-x="1187" d="M154 1204l8 37h413l-8 -37h-188l-90 -461h-39l90 461h-186zM567 743l99 498h61l113 -455h6l289 455h67l-98 -498h-37l88 453h-8l-289 -453h-45l-113 453h-6l-90 -453h-37z" />
<glyph unicode="&#x25fc;" horiz-adv-x="890" d="M0 0v891h891v-891h-891z" />
</font>
</defs>
</svg>
