<?xml version="1.0" standalone="no"?>
<!DOCTYPE svg PUBLIC "-//W3C//DTD SVG 1.1//EN" "http://www.w3.org/Graphics/SVG/1.1/DTD/svg11.dtd" >
<svg xmlns="http://www.w3.org/2000/svg" xmlns:xlink="http://www.w3.org/1999/xlink" version="1.1">
<metadata></metadata>
<defs>
<font id="orkneylight" horiz-adv-x="1480" >
<font-face units-per-em="2048" ascent="1536" descent="-512" />
<missing-glyph horiz-adv-x="532" />
<glyph unicode="&#xfb01;" horiz-adv-x="1183" d="M90 918v106h172v133q0 183 115 291t303 108q160 0 336 -90v-127q-179 103 -324 103q-134 0 -215.5 -77.5t-81.5 -213.5v-127h619v-1024h-133v918h-486v-918h-133v918h-172z" />
<glyph unicode="&#xfb02;" horiz-adv-x="1343" d="M90 918v106h172v133q0 182 115 290.5t295 108.5q117 0 215 -32v12h135v-209v-1081q0 -71 37 -109.5t102 -38.5q67 0 107 43l75 -92q-69 -69 -186 -69q-122 0 -196 73.5t-74 192.5v1157q-92 39 -201 39q-128 0 -209.5 -78t-81.5 -213v-127h281v-106h-281v-918h-133v918 h-172z" />
<glyph horiz-adv-x="0" />
<glyph horiz-adv-x="682" />
<glyph unicode=" "  horiz-adv-x="532" />
<glyph unicode="&#x09;" horiz-adv-x="532" />
<glyph unicode="&#xa0;" horiz-adv-x="532" />
<glyph unicode="!" horiz-adv-x="583" d="M193 80q0 42 29 71t71 29q40 0 70 -29t30 -71q0 -40 -30 -70t-70 -30q-41 0 -70.5 30t-29.5 70zM225 1536h133l-12 -1114h-108z" />
<glyph unicode="&#x22;" horiz-adv-x="831" d="M193 1536h126l-12 -580h-102zM512 1536h129l-14 -580h-101z" />
<glyph unicode="#" horiz-adv-x="1536" d="M127 365l14 104h289l74 500h-291l16 102h285l53 367h103l-52 -367h400l51 367h102l-51 -367h289l-16 -102h-287l-70 -500h287l-14 -104h-287l-55 -365h-101l52 365h-402l-49 -365h-102l51 365h-289zM532 469h400l72 500h-400z" />
<glyph unicode="$" horiz-adv-x="1316" d="M158 283l102 57q43 -103 150.5 -171.5t248.5 -68.5q154 0 259.5 79.5t105.5 215.5q0 64 -27.5 115t-73.5 86.5t-106 65t-126 55t-132.5 53t-126.5 63t-106 79t-73.5 107.5t-27.5 144q0 88 32.5 160t87 118t121.5 73t142 34v176h121v-180q98 -13 183.5 -60.5t142.5 -113.5 l-84 -70q-48 62 -130 102t-177 40q-82 0 -152 -29.5t-117 -93t-47 -150.5q0 -64 27.5 -115t73.5 -86.5t105.5 -65t126 -55.5t132.5 -53.5t125.5 -63t105.5 -79t73.5 -107.5t27.5 -143q0 -92 -35 -167.5t-95 -124.5t-132.5 -79t-153.5 -40v-172h-121v170q-154 12 -275.5 94.5 t-174.5 200.5z" />
<glyph unicode="%" d="M125 1247q0 128 78 218.5t188 90.5t188 -90.5t78 -218.5t-78 -218.5t-188 -90.5t-188 90.5t-78 218.5zM141 0l1057 1536h141l-1056 -1536h-142zM233 1247q0 -84 46.5 -143.5t111.5 -59.5t112.5 59.5t47.5 143.5t-47.5 143.5t-112.5 59.5t-111.5 -59.5t-46.5 -143.5z M825 291q0 128 78.5 218.5t188.5 90.5t188 -90.5t78 -218.5q0 -129 -78 -220t-188 -91t-188.5 91t-78.5 220zM932 291q0 -86 47 -144.5t113 -58.5q65 0 111 58.5t46 144.5q0 84 -46 142.5t-111 58.5q-66 0 -113 -58.5t-47 -142.5z" />
<glyph unicode="&#x26;" horiz-adv-x="1521" d="M228 322.5q-31 120.5 0 240.5t120 209l111 107l-72 71q-50 50 -76 116.5t-26 135.5q0 147 103.5 249.5t250.5 102.5t251.5 -102.5t104.5 -249.5h-125q0 95 -68 163.5t-163 68.5q-97 0 -165 -69t-68 -167q0 -95 67 -162l647 -643l226 223l86 -86l-226 -223l226 -221 l-91 -88l-223 221l-108 -106q-135 -136 -330 -135.5t-332 135.5q-89 89 -120 209.5zM335 442.5q0 -141.5 101 -241.5q103 -101 245 -101t243 101l108 106l-487 486l-109 -109q-101 -100 -101 -241.5z" />
<glyph unicode="'" horiz-adv-x="512" d="M193 1536h126l-12 -580h-102z" />
<glyph unicode="(" horiz-adv-x="819" d="M152 508q0 252 40.5 464t111 357t166 230t206.5 96v-99q-114 -18 -205 -148.5t-145 -365.5t-54 -534q0 -297 54 -530t145 -362.5t205 -147.5v-99q-227 21 -375.5 329.5t-148.5 809.5z" />
<glyph unicode=")" horiz-adv-x="819" d="M143 -532q114 18 205 147.5t145 362.5t54 530q0 299 -54 534t-145 365.5t-205 148.5v99q111 -11 206.5 -96t166.5 -230t111.5 -357t40.5 -464q0 -251 -40.5 -462t-111.5 -355t-166.5 -228t-206.5 -94v99z" />
<glyph unicode="*" horiz-adv-x="686" d="M111 1249v84l186 -14l-107 151l72 43l82 -165l80 165l74 -43l-107 -151l187 14v-84l-187 13l107 -152l-74 -43l-80 166l-82 -166l-72 43l107 152z" />
<glyph unicode="+" horiz-adv-x="1652" d="M193 582v108h581v580h107v-580h581v-108h-581v-582h-107v582h-581z" />
<glyph unicode="," horiz-adv-x="407" d="M88 80q0 43 28.5 71.5t71.5 28.5q66 0 100 -60.5t34 -152.5q0 -84 -26 -164.5t-79.5 -137t-120.5 -56.5v72q57 0 97 74t40 147q0 78 -47 78q-41 0 -69.5 29.5t-28.5 70.5z" />
<glyph unicode="-" horiz-adv-x="1099" d="M193 483v99h716v-99h-716z" />
<glyph unicode="." horiz-adv-x="344" d="M72 80q0 41 30 70.5t70 29.5q41 0 70.5 -29.5t29.5 -70.5t-29.5 -70.5t-70.5 -29.5q-40 0 -70 29.5t-30 70.5z" />
<glyph unicode="/" horiz-adv-x="1179" d="M-31 -512l1080 2048h131l-1078 -2048h-133z" />
<glyph unicode="0" horiz-adv-x="1396" d="M152 768q0 220 71 400.5t196.5 284t278.5 103.5q152 0 277.5 -103.5t197.5 -284t72 -400.5t-72 -400.5t-197.5 -284t-277.5 -103.5q-153 0 -278.5 103.5t-196.5 284t-71 400.5zM287 768q0 -185 54.5 -338.5t149.5 -241.5t209 -88q113 0 207 88t148.5 241.5t54.5 338.5 t-54.5 339t-148.5 241.5t-207 87.5q-114 0 -209 -87.5t-149.5 -241.5t-54.5 -339z" />
<glyph unicode="1" horiz-adv-x="772" d="M72 1124v166l321 246h125v-1536h-133v1370z" />
<glyph unicode="2" horiz-adv-x="1222" d="M82 0v86q80 80 218 219q429 431 531.5 558t102.5 251q0 149 -91.5 234.5t-230.5 87.5q-142 3 -237 -85.5t-99 -236.5l-129 2q1 130 63.5 232.5t169 157t236.5 53.5q187 -3 312.5 -115.5t134.5 -302.5q1 -35 -0.5 -65t-12 -64t-20 -60.5t-35.5 -65.5t-45.5 -67t-64.5 -79 t-78 -87t-99.5 -103.5t-116 -117.5t-139.5 -140q-110 -109 -171 -171h839v-121h-1038z" />
<glyph unicode="3" horiz-adv-x="1218" d="M131 426l133 2q0 -133 98 -227.5t236 -94.5q141 0 238.5 99.5t97.5 240.5t-97.5 240.5t-238.5 99.5h-123v111h117q112 0 190 78.5t78 191.5q0 110 -78 187.5t-190 77.5q-109 0 -185.5 -74t-76.5 -180l-129 2q0 157 113.5 266.5t277.5 109.5t277.5 -109.5t113.5 -266.5 q0 -104 -55 -188.5t-148 -131.5q128 -52 207.5 -163.5t79.5 -250.5q0 -95 -37 -181.5t-99.5 -148.5t-149.5 -99t-183 -37q-127 0 -234.5 60t-170 162.5t-62.5 223.5z" />
<glyph unicode="4" horiz-adv-x="1208" d="M31 324v88l714 1124h164v-1092h170v-120h-170v-324h-133v324h-745zM190 444h586v942z" />
<glyph unicode="5" horiz-adv-x="1261" d="M164 193l90 92q62 -85 154.5 -133t195.5 -48q165 0 278 114t113 280t-113.5 280.5t-277.5 114.5q-83 0 -162 -33.5t-139 -93.5l-119 57l92 709h766v-121h-659l-72 -512q131 115 322 115q212 0 354.5 -147.5t142.5 -364.5q0 -224 -148.5 -373t-371.5 -149 q-132 0 -251 56.5t-195 156.5z" />
<glyph unicode="6" horiz-adv-x="1323" d="M133 475q-6 103 29.5 200.5t105.5 176.5l549 684h164l-440 -532q44 12 123 16q209 3 362.5 -140t165.5 -350q10 -215 -137 -373.5t-365 -172.5q-145 -8 -271 55.5t-202.5 179.5t-83.5 256zM266 475q9 -166 132 -274.5t290 -98.5q109 7 197 66.5t134.5 155t39.5 204.5 q-11 168 -134 276.5t-290 96.5q-166 -9 -273.5 -134t-95.5 -292z" />
<glyph unicode="7" horiz-adv-x="1118" d="M72 1415v121h1015v-82l-823 -1454h-155l817 1415h-854z" />
<glyph unicode="8" horiz-adv-x="1148" d="M96 440q0 138 76.5 249.5t202.5 164.5q-89 48 -141 134.5t-52 191.5q0 158 113.5 267t279.5 109q164 0 278 -109t114 -267q0 -104 -52.5 -191t-140.5 -135q127 -55 203 -166t76 -248q0 -192 -139 -326t-341 -134q-199 0 -338 134t-139 326zM231 449q0 -145 100 -247 t242 -102q144 0 244.5 102t100.5 247q0 143 -100 242.5t-245 99.5q-143 0 -242.5 -99.5t-99.5 -242.5zM299 1171q0 -115 80.5 -195.5t195.5 -80.5q114 0 194.5 80.5t80.5 195.5t-80.5 195t-194.5 80q-116 0 -196 -80t-80 -195z" />
<glyph unicode="9" horiz-adv-x="1323" d="M133 1006q-8 142 57 265t182.5 198t260.5 83q146 8 272 -55t202.5 -178t84.5 -256q12 -207 -135 -377l-551 -686h-164l453 545q-41 -27 -136 -27q-209 -4 -362 138.5t-164 349.5zM264 1010q11 -167 134 -276t290 -99q109 7 197 67t134.5 155.5t39.5 203.5 q-12 167 -135 276t-289 99q-167 -12 -275 -136t-96 -290z" />
<glyph unicode=":" horiz-adv-x="583" d="M193 80q0 41 29.5 70.5t70.5 29.5q40 0 70 -29.5t30 -70.5t-30 -70.5t-70 -29.5q-41 0 -70.5 29.5t-29.5 70.5zM193 944q0 41 29.5 70.5t70.5 29.5q40 0 70 -29.5t30 -70.5t-30 -70.5t-70 -29.5q-41 0 -70.5 29.5t-29.5 70.5z" />
<glyph unicode=";" horiz-adv-x="604" d="M195 80q0 42 29 71t71 29q98 0 119 -141.5t-42 -284t-169 -145.5v72q51 4 91 92q38 86 33 157q-3 50 -32 50q-41 0 -70.5 29.5t-29.5 70.5zM195 944q0 41 30 70.5t70 29.5q41 0 70.5 -29.5t29.5 -70.5t-29.5 -70.5t-70.5 -29.5q-40 0 -70 29.5t-30 70.5z" />
<glyph unicode="&#x3c;" horiz-adv-x="1513" d="M193 625v125l1130 567v-117l-1020 -514l1020 -514v-119z" />
<glyph unicode="=" horiz-adv-x="1488" d="M131 305v94h1229v-94h-1229zM131 688v94h1229v-94h-1229z" />
<glyph unicode="&#x3e;" horiz-adv-x="1513" d="M193 53v119l1017 514l-1017 514v117l1130 -567v-125z" />
<glyph unicode="?" horiz-adv-x="1118" d="M131 1147q6 172 127 283.5t301 111.5q187 0 307.5 -115t120.5 -294q0 -70 -15.5 -125.5t-41.5 -90.5t-59 -64.5t-67 -49t-67 -42.5t-59 -45t-41.5 -57t-15.5 -79v-156h-123v137q0 75 20.5 130t53 86.5t71.5 56.5t78 48.5t71.5 52.5t53 79t20.5 119q0 129 -86 209.5 t-221 80.5q-126 0 -212 -77.5t-95 -198.5h-121zM467 80q0 41 29.5 70.5t70.5 29.5q40 0 70.5 -29.5t30.5 -70.5t-30.5 -70.5t-70.5 -29.5q-41 0 -70.5 29.5t-29.5 70.5z" />
<glyph unicode="@" horiz-adv-x="1239" d="M131 565q0 153 69.5 281.5t190 203t264.5 74.5q166 0 279 -108t113 -266v-445h-91v82q-35 -45 -93 -74.5t-111 -29.5q-111 0 -188 75t-77 183q0 107 77 181.5t186 74.5q58 0 116.5 -31.5t89.5 -79.5v64q0 118 -87.5 200t-213.5 82q-181 0 -307.5 -136t-126.5 -331 q0 -200 144 -337.5t350 -137.5h332v-90h-332q-161 0 -295.5 74.5t-211.5 204.5t-77 286zM590 541q0 -75 54 -125.5t132 -50.5q66 0 116.5 36.5t63.5 96.5v86q-14 59 -64 96t-116 37q-78 0 -132 -50.5t-54 -125.5z" />
<glyph unicode="A" d="M47 0l617 1536h153l617 -1536h-152l-129 334h-825l-129 -334h-152zM375 453h731l-367 938z" />
<glyph unicode="B" horiz-adv-x="1316" d="M164 0v1536h514q175 0 296.5 -115t121.5 -288q0 -116 -55.5 -205t-151.5 -140q144 -29 236 -133t92 -252q0 -173 -120 -288t-294 -115h-639zM301 125h485q121 0 206 86t85 207t-85 207t-206 86h-485v-586zM301 827h365q121 0 205.5 85.5t84.5 207.5q0 121 -85 207 t-205 86h-365v-586z" />
<glyph unicode="C" horiz-adv-x="1396" d="M109 768q0 216 95.5 396t268 286t385.5 106q250 0 442 -159v-170q-186 198 -442 198q-179 0 -321 -87.5t-219.5 -237.5t-77.5 -332t77.5 -331t219.5 -236.5t321 -87.5q261 0 442 196v-168q-195 -161 -442 -161q-213 0 -385.5 106t-268 286t-95.5 396z" />
<glyph unicode="D" horiz-adv-x="1447" d="M164 0v1536h407q209 0 385.5 -103t279.5 -279.5t103 -385.5t-103 -385.5t-279.5 -279.5t-385.5 -103h-407zM301 125h268q130 0 247 50.5t201 136.5t133.5 205t49.5 251t-49.5 251.5t-133.5 205.5t-201 137t-247 51h-268v-1288z" />
<glyph unicode="E" horiz-adv-x="1107" d="M164 0v1536h827v-123h-688v-582h602v-124h-602v-582h688v-125h-827z" />
<glyph unicode="F" horiz-adv-x="1054" d="M164 0v1536h827v-123h-688v-582h602v-124h-602v-707h-139z" />
<glyph unicode="G" horiz-adv-x="1507" d="M150 764q0 170 60.5 318.5t164 251.5t243.5 162.5t295 59.5q236 0 430 -126v-175q-83 82 -193 126t-230 44q-132 0 -249.5 -49t-204 -135t-137 -210t-50.5 -267t50.5 -267t137 -209.5t203.5 -134.5t248 -49q161 0 301 76v488h-398v125h522v-693q-198 -129 -428 -129 q-157 0 -297.5 59.5t-243.5 163t-163.5 252t-60.5 318.5z" />
<glyph unicode="H" horiz-adv-x="1482" d="M164 0v1536h139v-705h879v705h137v-1536h-137v707h-879v-707h-139z" />
<glyph unicode="I" horiz-adv-x="466" d="M164 0v1536h139v-1536h-139z" />
<glyph unicode="J" horiz-adv-x="768" d="M111 -2v143q68 -22 153 -22q80 0 138.5 57.5t58.5 138.5v1221h137v-1221q0 -139 -98 -237t-236 -98q-90 0 -153 18z" />
<glyph unicode="K" horiz-adv-x="1206" d="M164 0v1536h139v-662l658 662h180l-697 -694l707 -699v-184l-848 840v-799h-139z" />
<glyph unicode="L" horiz-adv-x="929" d="M164 0v1536h139v-1411h580v-125h-719z" />
<glyph unicode="M" horiz-adv-x="1828" d="M164 0v1536h145l604 -899l609 899h143v-1536h-137v1329l-615 -919l-610 919v-1329h-139z" />
<glyph unicode="N" horiz-adv-x="1566" d="M164 0v1536h125l977 -1303v1303h137v-1536h-125l-975 1303v-1303h-139z" />
<glyph unicode="O" horiz-adv-x="1716" d="M109 768q0 216 95.5 396t268 286t385.5 106q160 0 300 -62t238.5 -168t155 -251t56.5 -307t-56.5 -307t-155 -251t-238.5 -168t-300 -62q-213 0 -385.5 106t-268 286t-95.5 396zM240 768q0 -182 77.5 -331t219.5 -236.5t321 -87.5q134 0 250 51t196 139t125.5 208.5 t45.5 256.5q0 183 -77.5 332.5t-219 237t-320.5 87.5t-321 -87.5t-219.5 -237.5t-77.5 -332z" />
<glyph unicode="P" horiz-adv-x="1179" d="M164 0v1536h534q175 0 298.5 -123.5t123.5 -298.5q0 -176 -123.5 -299t-298.5 -123h-395v-692h-139zM303 811h387q126 0 214.5 85.5t88.5 215.5q0 128 -88.5 214.5t-214.5 86.5h-387v-602z" />
<glyph unicode="Q" horiz-adv-x="1701" d="M109 768q0 216 95.5 396t268 286t385.5 106q160 0 300 -62t238.5 -168t155 -251t56.5 -307q0 -296 -172 -512l88 -92q33 -33 75 -33h70v-131h-72q-91 0 -172 84l-77 80q-206 -184 -490 -184q-213 0 -385.5 106t-268 286t-95.5 396zM240 768q0 -182 77.5 -331 t219.5 -236.5t321 -87.5q235 0 399 145l-268 283l88 88l266 -279q132 181 132 418q0 183 -77.5 332.5t-219 237t-320.5 87.5t-321 -87.5t-219.5 -237.5t-77.5 -332z" />
<glyph unicode="R" horiz-adv-x="1185" d="M164 0v1536h534q175 0 298.5 -123.5t123.5 -300.5q0 -156 -102.5 -270.5t-255.5 -134.5l393 -707h-156l-378 700h-318v-700h-139zM303 817h391q124 0 211.5 87.5t87.5 211.5q0 123 -88 210t-211 87h-391v-596z" />
<glyph unicode="S" horiz-adv-x="1273" d="M98 274l99 103q47 -115 173.5 -189.5t291.5 -74.5q160 0 262 70t102 212q0 44 -12 82.5t-29.5 67.5t-51 57t-61 46t-76 40t-79 33.5t-86.5 32.5q-175 66 -245 107q-160 94 -183 243q-4 27 -4 57q0 97 37.5 174t102 124.5t146 72t174.5 24.5q156 0 281 -55t201 -145 l-94 -96q-56 79 -155.5 127.5t-232.5 48.5q-135 0 -227 -67.5t-92 -197.5q0 -36 11 -68.5t26.5 -57t45 -48.5t54.5 -40t68 -35.5t72 -31t79 -30.5q181 -70 255 -113q177 -103 208 -265q8 -38 8 -81q0 -104 -39.5 -185.5t-109 -132.5t-160.5 -77t-199 -26q-186 0 -337 82 t-224 212z" />
<glyph unicode="T" horiz-adv-x="1052" d="M29 1413v125h997v-125h-430v-1411h-137v1411h-430z" />
<glyph unicode="U" horiz-adv-x="1474" d="M170 506v1030h139v-1010q0 -175 125 -298.5t303 -123.5q180 0 305 123.5t125 298.5v1010h138v-1030q0 -144 -76 -265t-206.5 -191t-285.5 -70t-285.5 70t-206 191t-75.5 265z" />
<glyph unicode="V" horiz-adv-x="1378" d="M-6 1536h158l536 -1374l539 1374h155l-616 -1536h-154z" />
<glyph unicode="W" horiz-adv-x="2142" d="M-20 1536h149l580 -1370l292 692l-286 678h143l578 -1372l577 1372h150l-650 -1536h-149l-293 692l-291 -692h-149z" />
<glyph unicode="X" horiz-adv-x="1290" d="M47 0l520 776l-510 760h158l428 -645l430 645h158l-512 -760l524 -776h-162l-438 662l-436 -662h-160z" />
<glyph unicode="Y" horiz-adv-x="1302" d="M47 1536h156l448 -688l451 688h153l-534 -807v-729h-137v725z" />
<glyph unicode="Z" horiz-adv-x="1353" d="M96 0v70l932 1343h-909v123h1102v-70l-932 -1341h966v-125h-1159z" />
<glyph unicode="[" horiz-adv-x="552" d="M170 -649v2322h383v-106h-264v-2110h264v-106h-383z" />
<glyph unicode="\" horiz-adv-x="1179" d="M-31 1536h133l1078 -2048h-131z" />
<glyph unicode="]" horiz-adv-x="552" d="M170 -543h264v2110h-264v106h383v-2322h-383v106z" />
<glyph unicode="^" horiz-adv-x="1402" d="M70 406l569 1130h125l569 -1130h-119l-514 1017l-512 -1017h-118z" />
<glyph unicode="_" horiz-adv-x="1406" d="M193 0h1024v-98h-1024v98z" />
<glyph unicode="`" horiz-adv-x="108" d="M70 1536h141l188 -307h-114z" />
<glyph unicode="a" horiz-adv-x="1097" d="M92 293q0 72 27 130t88 103t158 55q29 3 61 3q77 0 176 -17l205 -39v148q0 126 -78.5 189t-206.5 63q-102 0 -181.5 -41t-121.5 -117l-94 82q56 90 159 141t246 51q117 0 207 -39.5t145.5 -125.5t55.5 -209v-670h-121l-6 168q-92 -89 -197.5 -138.5t-210.5 -49.5 q-136 0 -223.5 88t-87.5 225zM229 299q0 -88 55.5 -143.5t147.5 -55.5q187 0 375 191v133l-203 43q-83 17 -147 17q-86 0 -138 -30q-90 -52 -90 -155z" />
<glyph unicode="b" horiz-adv-x="1224" d="M164 0v1536h133v-690q62 93 157 145.5t212 52.5q211 0 342 -152.5t131 -379.5q0 -148 -57.5 -268.5t-166.5 -192t-249 -71.5q-119 0 -215.5 54t-159.5 150l-4 -184h-123zM297 416q27 -139 122 -227.5t228 -88.5q162 0 261.5 118.5t99.5 293.5q0 176 -99.5 294t-261.5 118 q-133 0 -228 -88.5t-122 -227.5v-192z" />
<glyph unicode="c" horiz-adv-x="933" d="M86 512q0 230 132 381t349 151q160 0 277 -94v-139q-107 117 -264 117q-163 0 -263 -118t-100 -298q0 -178 100 -297t263 -119q77 0 146.5 31t117.5 84v-137q-114 -94 -277 -94q-217 0 -349 151t-132 381z" />
<glyph unicode="d" horiz-adv-x="1224" d="M86 512q0 227 131 379.5t342 152.5q117 0 212.5 -52.5t158.5 -145.5v690h131v-1536h-121l-8 184q-63 -96 -158.5 -150t-214.5 -54q-140 0 -249 71.5t-166.5 192t-57.5 268.5zM217 512q0 -174 100 -293t261 -119q132 0 228 88.5t124 227.5v192q-28 139 -124 227.5 t-228 88.5q-161 0 -261 -118t-100 -294z" />
<glyph unicode="e" horiz-adv-x="1124" d="M86 512q0 150 58.5 270.5t170 191t256.5 70.5q213 0 341 -146t128 -378q0 -35 -2 -53h-821q12 -167 107 -268t251 -101q100 0 172 41t132 133l94 -67q-63 -108 -165 -166.5t-237 -58.5q-145 0 -256.5 70.5t-170 190.5t-58.5 271zM219 573h699q-14 160 -105.5 257.5 t-239.5 97.5q-150 0 -243 -97.5t-111 -257.5z" />
<glyph unicode="f" horiz-adv-x="714" d="M90 918v106h172v256q0 115 83 195.5t200 80.5q137 0 217 -102l-78 -82q-50 70 -137 70q-64 0 -108 -48.5t-44 -119.5v-250h281v-106h-281v-918h-133v918h-172z" />
<glyph unicode="g" horiz-adv-x="1224" d="M86 512q0 227 131 379.5t342 152.5q116 0 213 -55.5t160 -152.5l8 188h121v-1010q0 -148 -59.5 -267.5t-170 -189t-251.5 -69.5q-182 0 -320 113v151q136 -143 328 -143q149 0 245.5 113t96.5 292v170q-64 -96 -160 -150t-211 -54q-140 0 -249 71.5t-166.5 192 t-57.5 268.5zM217 512q0 -174 100 -293t261 -119q128 0 226 90.5t126 229.5v186q-28 138 -126 228t-226 90q-161 0 -261 -118t-100 -294z" />
<glyph unicode="h" horiz-adv-x="1191" d="M164 0v1536h135v-662q56 79 144 124.5t192 45.5q169 0 283 -113.5t114 -283.5v-647h-135v635q0 122 -85.5 205.5t-209.5 83.5q-126 0 -214.5 -86t-88.5 -209v-629h-135z" />
<glyph unicode="i" horiz-adv-x="536" d="M168 1319q0 41 30 70.5t70 29.5q41 0 71 -29.5t30 -70.5t-30 -70.5t-71 -29.5q-40 0 -70 29.5t-30 70.5zM201 0v1024h135v-1024h-135z" />
<glyph unicode="j" horiz-adv-x="532" d="M-45 -379q21 -17 54.5 -28t60.5 -11q68 0 114.5 49t46.5 119v1274h136v-1280q0 -115 -83 -195.5t-202 -80.5q-32 0 -69.5 9.5t-57.5 22.5v121zM199 1319q0 41 29.5 70.5t70.5 29.5q40 0 70 -29.5t30 -70.5t-30 -70.5t-70 -29.5q-41 0 -70.5 29.5t-29.5 70.5z" />
<glyph unicode="k" horiz-adv-x="980" d="M164 2v1536h135v-930l461 416h174l-502 -451l541 -493v-168l-674 614v-524h-135z" />
<glyph unicode="l" horiz-adv-x="626" d="M170 246v1290h133l2 -1290q0 -71 36 -109.5t101 -38.5q69 0 109 43l76 -92q-69 -69 -187 -69q-122 0 -196 73.5t-74 192.5z" />
<glyph unicode="m" horiz-adv-x="1843" d="M164 0v1024h125l6 -141q54 75 136.5 118t180.5 43q113 0 202.5 -54.5t135.5 -149.5q53 94 147 149t208 55q163 0 270.5 -109t107.5 -273v-662h-135v649q0 116 -78.5 195.5t-195.5 79.5q-118 0 -200.5 -82t-82.5 -201v-641h-135v649q0 116 -78.5 195.5t-195.5 79.5 q-118 0 -200.5 -82t-82.5 -201v-641h-135z" />
<glyph unicode="n" horiz-adv-x="1191" d="M164 0v1024h125l6 -154q57 81 146 127.5t194 46.5q169 0 283 -113.5t114 -283.5v-647h-135v635q0 122 -85.5 205.5t-209.5 83.5q-126 0 -214.5 -86t-88.5 -209v-629h-135z" />
<glyph unicode="o" horiz-adv-x="1157" d="M86 512q0 147 61 268t174.5 192.5t256.5 71.5q144 0 257.5 -71.5t174.5 -192.5t61 -268t-61 -268t-174.5 -192.5t-257.5 -71.5q-143 0 -256.5 71.5t-174.5 192.5t-61 268zM217 512q0 -174 100 -293t261 -119q162 0 261 118.5t99 293.5q0 176 -99 294t-261 118 q-161 0 -261 -118t-100 -294z" />
<glyph unicode="p" horiz-adv-x="1224" d="M164 -512v1536h133v-178q62 93 157 145.5t212 52.5q211 0 342 -152.5t131 -379.5q0 -148 -57.5 -268.5t-166.5 -192t-249 -71.5q-117 0 -212 52.5t-157 145.5v-690h-133zM297 416q27 -139 122 -227.5t228 -88.5q162 0 261.5 118.5t99.5 293.5q0 176 -99.5 294t-261.5 118 q-133 0 -228 -88.5t-122 -227.5v-192z" />
<glyph unicode="q" horiz-adv-x="1224" d="M86 512q0 227 131 379.5t342 152.5q117 0 212.5 -52.5t158.5 -145.5v178h131v-1536h-131v690q-63 -93 -158.5 -145.5t-212.5 -52.5q-140 0 -249 71.5t-166.5 192t-57.5 268.5zM217 512q0 -174 100 -293t261 -119q132 0 228 88.5t124 227.5v192q-28 139 -124 227.5 t-228 88.5q-161 0 -261 -118t-100 -294z" />
<glyph unicode="r" horiz-adv-x="774" d="M164 0v1024h125l6 -168q55 86 138 137t175 51q126 0 197 -49l-64 -98q-61 27 -139 27q-121 0 -212 -94.5t-91 -231.5v-598h-135z" />
<glyph unicode="s" horiz-adv-x="958" d="M80 152l78 86q35 -60 130 -102t195 -44h9q102 0 172 46q72 48 73 134q0 29 -9 52.5t-29 42t-40 32t-54 26t-59 20.5t-66 20q-5 1 -7.5 2t-6.5 2t-7 2q-41 12 -68 20.5t-64 23.5t-61.5 29.5t-51.5 36.5t-42.5 46.5t-26 58t-10.5 72.5q0 88 54.5 155t135 99t171.5 32 q94 0 184.5 -32.5t146.5 -81.5l-79 -92q-40 43 -102 68t-128 28h-13q-90 0 -160 -38q-75 -42 -75 -122q0 -36 15 -65t35.5 -47.5t59 -35.5t67.5 -26t79 -22q36 -10 50 -14t48 -14.5t49.5 -17t44.5 -19t43 -24t35.5 -28t32 -34.5t22.5 -40.5t16.5 -49t4.5 -56.5 q0 -131 -109.5 -216t-273.5 -85q-126 0 -242.5 49t-166.5 123z" />
<glyph unicode="t" horiz-adv-x="657" d="M49 918v106h141v348h136v-348h264v-106h-264v-672q0 -71 37 -109.5t102 -38.5q66 0 106 43l76 -92q-69 -69 -186 -69q-122 0 -196.5 73.5t-74.5 192.5v672h-141z" />
<glyph unicode="u" horiz-adv-x="1198" d="M166 383v641h135v-627q0 -123 86.5 -210t210.5 -87q125 0 214 87t89 210v627h133v-1024h-123l-8 156q-57 -81 -145 -128.5t-189 -47.5q-168 0 -285.5 117.5t-117.5 285.5z" />
<glyph unicode="v" horiz-adv-x="993" d="M20 1024h146l332 -864l331 864h144l-412 -1024h-131z" />
<glyph unicode="w" horiz-adv-x="1435" d="M27 1024h149l285 -862l192 575l-100 287h133l293 -866l285 866h147l-350 -1024h-150l-196 559l-189 -559h-147z" />
<glyph unicode="x" horiz-adv-x="1005" d="M-6 0l426 512l-426 512h164l344 -414l344 414h164l-426 -512l426 -512h-164l-344 414l-342 -414h-166z" />
<glyph unicode="y" horiz-adv-x="1200" d="M166 383v641h135v-627q0 -123 86.5 -210t210.5 -87q125 0 214 87t89 210v627h133l2 -1075q0 -102 -28 -187t-82.5 -150t-143.5 -101.5t-204 -36.5q-212 0 -361 112v152q151 -144 369 -144q162 0 238.5 95t76.5 260v201q-58 -78 -145.5 -124t-186.5 -46 q-168 0 -285.5 117.5t-117.5 285.5z" />
<glyph unicode="z" horiz-adv-x="1054" d="M86 0v90l678 819h-662v115h846v-84l-678 -825h699v-115h-883z" />
<glyph unicode="{" horiz-adv-x="653" d="M111 461v100q42 21 70 47.5t44.5 54t25 68.5t11 78.5t2.5 97.5v479q0 111 56.5 187t140.5 76h80v-101q-94 0 -131 -39t-37 -137v-495q0 -129 -29 -216.5t-119 -150.5q90 -62 119 -149.5t29 -217.5v-501q0 -89 38 -129.5t130 -40.5v-107h-80q-84 0 -140.5 75.5 t-56.5 186.5v486q0 152 -28 225.5t-125 122.5z" />
<glyph unicode="|" horiz-adv-x="587" d="M248 -307v1843h92v-1843h-92z" />
<glyph unicode="}" horiz-adv-x="653" d="M113 -528q93 0 130.5 40.5t37.5 129.5v501q0 131 29 218t120 149q-91 63 -120 150t-29 217v495q0 99 -36.5 137.5t-131.5 38.5v105h82q84 0 140 -74.5t56 -185.5v-486q0 -59 2.5 -97t11 -79t25 -68.5t45 -54t70.5 -47.5v-100q-42 -21 -69.5 -46t-44.5 -52t-26 -67.5 t-11.5 -80.5t-2.5 -102v-486q0 -111 -56 -186.5t-140 -75.5h-82v107z" />
<glyph unicode="~" horiz-adv-x="1150" d="M86 401q-4 141 73.5 230.5t198.5 89.5q78 0 134.5 -38.5t117.5 -113.5q45 -55 86 -83.5t97 -28.5q86 0 140 66t50 169h82q6 -135 -70.5 -225t-195.5 -90q-45 0 -84 12.5t-72.5 39t-52.5 45.5t-49 54q-47 56 -88.5 84.5t-94.5 28.5q-86 0 -139.5 -69t-50.5 -171h-82z" />
<glyph unicode="&#xa1;" horiz-adv-x="583" d="M193 924q0 41 29.5 70.5t70.5 29.5q40 0 70 -29.5t30 -70.5t-30 -71t-70 -30q-41 0 -70.5 30t-29.5 71zM225 -512l13 1114h108l12 -1114h-133z" />
<glyph unicode="&#xa2;" horiz-adv-x="1097" d="M109 717q0 203 137.5 353t341.5 175v193h88v-189q145 -6 272 -90v-137q-118 106 -293 106q-172 0 -291.5 -119.5t-119.5 -291.5q0 -171 120 -291.5t291 -120.5q177 0 293 107v-138q-124 -84 -272 -90v-186h-88v190q-204 25 -341.5 175.5t-137.5 353.5z" />
<glyph unicode="&#xa3;" horiz-adv-x="1228" d="M82 709v96h164v297q0 200 122.5 327t317.5 127q137 0 254 -83.5t158 -212.5l-103 -46q-28 102 -116 168t-193 66q-151 0 -242.5 -95.5t-91.5 -250.5v-297h381v-96h-381v-607h778v-102h-884v709h-164z" />
<glyph unicode="&#xa4;" horiz-adv-x="1208" d="M158 377l102 100q-92 115 -92 266.5t94 266.5l-102 100l76 80l102 -105q117 94 266.5 94.5t265.5 -94.5l103 103l76 -76l-101 -100q94 -117 94 -267.5t-94 -267.5l101 -100l-74 -80l-105 104q-116 -94 -266.5 -94t-267.5 94l-103 -104zM275.5 742q-0.5 -136 93.5 -230 q98 -98 234.5 -98t234.5 98q95 95 95 231.5t-95 233.5q-97 95 -233.5 95t-233.5 -97q-95 -97 -95.5 -233z" />
<glyph unicode="&#xa5;" horiz-adv-x="1357" d="M90 1536h131l457 -700l459 700h131l-529 -799v-30h435v-95h-435v-213h435v-90h-435v-309h-121v309h-428v90h428v213h-428v95h428v30z" />
<glyph unicode="&#xa6;" horiz-adv-x="587" d="M248 -307v737h92v-737h-92zM248 799v737h92v-737h-92z" />
<glyph unicode="&#xa7;" horiz-adv-x="1249" d="M137 233l90 52q40 -79 150 -132t260 -53q156 0 264.5 57.5t108.5 159.5q0 60 -44 104.5t-115 73t-156 53t-170.5 52.5t-156.5 64t-115 96t-44 139q0 107 84 182q-82 72 -82 179q0 94 62 163t156 101t204 32q120 0 226 -39t171 -102l-76 -59q-50 50 -133 79t-182 29 q-133 0 -228.5 -53t-95.5 -147q0 -60 44 -105t115 -73t156 -53t170.5 -53.5t156.5 -65t115 -96.5t44 -140q0 -104 -84 -182q84 -74 84 -179q0 -95 -68.5 -167.5t-177.5 -109t-237 -36.5q-173 0 -307 65t-189 164zM315 903q0 -60 41.5 -105t115 -75t150.5 -53t171 -54 t155 -63q62 56 62 127q0 59 -42 103t-115.5 73.5t-150.5 52.5t-171 53t-154 62q-62 -49 -62 -121z" />
<glyph unicode="&#xa8;" horiz-adv-x="108" d="M135 1319q0 41 30 70.5t71 29.5q40 0 70 -29.5t30 -70.5t-30 -70.5t-70 -29.5q-41 0 -71 29.5t-30 70.5zM494 1319q0 41 29.5 70.5t70.5 29.5q40 0 69 -29.5t29 -70.5t-29 -70.5t-69 -29.5q-41 0 -70.5 29.5t-29.5 70.5z" />
<glyph unicode="&#xa9;" horiz-adv-x="1794" d="M109 768q0 160 62.5 306t168 251.5t251.5 168t306 62.5q128 0 248.5 -40t217.5 -113t170 -170t113 -217t40 -248t-40 -248t-113 -217t-170 -170t-217.5 -113t-248.5 -40q-160 0 -306 62.5t-251.5 168t-168 251.5t-62.5 306zM193 768q0 -192 94 -354.5t256 -256.5t354 -94 q145 0 276 55.5t225.5 150t150 225t55.5 274.5t-55.5 274.5t-150 225t-225.5 150t-276 55.5q-192 0 -354 -94t-256 -256.5t-94 -354.5zM489 762q0 174 125.5 297t303.5 123q128 0 237 -76v-96l-10 -2q-94 84 -225 84q-138 0 -235 -94.5t-97 -235.5q0 -140 97 -235t235 -95 q130 0 225 82l10 -2v-94q-105 -76 -237 -76q-178 0 -303.5 123t-125.5 297z" />
<glyph unicode="&#xaa;" horiz-adv-x="829" d="M63 1229q0 132 92.5 225.5t221.5 93.5q85 0 155 -42.5t109 -114.5v145h78v-614h-78v143q-39 -72 -109 -114t-155 -42q-129 0 -221.5 93.5t-92.5 226.5zM141 1229q0 -104 73 -177t177 -73q103 0 176.5 73t73.5 177q0 103 -73.5 175.5t-176.5 72.5q-104 0 -177 -72.5 t-73 -175.5z" />
<glyph unicode="&#xab;" horiz-adv-x="1253" d="M236 571l311 377h119l-312 -377l312 -376h-119zM588 571l311 377h121l-311 -377l311 -376h-121z" />
<glyph unicode="&#xac;" horiz-adv-x="1589" d="M193 776v94h1206v-618h-94v524h-1112z" />
<glyph unicode="&#xad;" horiz-adv-x="1208" d="M193 483v99h716v-99h-716z" />
<glyph unicode="&#xae;" horiz-adv-x="1794" d="M109 768q0 160 62.5 306t168 251.5t251.5 168t306 62.5q128 0 248.5 -40t217.5 -113t170 -170t113 -217t40 -248t-40 -248t-113 -217t-170 -170t-217.5 -113t-248.5 -40q-160 0 -306 62.5t-251.5 168t-168 251.5t-62.5 306zM193 768q0 -192 94 -354.5t256 -256.5t354 -94 q145 0 276 55.5t225.5 150t150 225t55.5 274.5t-55.5 274.5t-150 225t-225.5 150t-276 55.5q-192 0 -354 -94t-256 -256.5t-94 -354.5zM690 369v800h260q94 0 161 -66t67 -159q0 -77 -48 -137.5t-122 -79.5l198 -358h-88l-196 350h-152v-350h-80zM770 799h180 q61 0 104.5 42.5t43.5 102.5q0 61 -43 103.5t-105 42.5h-180v-291z" />
<glyph unicode="&#xaf;" horiz-adv-x="137" d="M70 1243v94h635v-94h-635z" />
<glyph unicode="&#xb0;" horiz-adv-x="1013" d="M233 1282q0 114 80.5 194t194.5 80q113 0 193.5 -80t80.5 -194q0 -112 -81 -193t-193 -81q-114 0 -194.5 80.5t-80.5 193.5zM311 1282q0 -82 57 -139.5t140 -57.5q82 0 139.5 57.5t57.5 139.5q0 83 -57.5 140t-139.5 57q-83 0 -140 -57t-57 -140z" />
<glyph unicode="&#xb1;" horiz-adv-x="1626" d="M111 0v88h1405v-88h-1405zM111 766v94h655v369h94v-369h656v-94h-656v-369h-94v369h-655z" />
<glyph unicode="&#xb2;" horiz-adv-x="702" d="M82 778v51q280 286 320 330q80 88 92 137q4 16 4 37q0 72 -44 113t-110 43q-69 0 -114 -42.5t-46 -113.5h-73q0 100 68.5 162.5t168.5 60.5q93 0 156.5 -56t66.5 -150q1 -45 -9.5 -80t-52.5 -89t-93.5 -107.5t-163.5 -166.5q-12 -12 -19.5 -19t-18.5 -18.5t-21 -21.5h407 v-70h-518z" />
<glyph unicode="&#xb3;" horiz-adv-x="753" d="M131 991l76 2q0 -63 47 -107t113 -44q67 0 113 47t46 115q0 69 -45.5 115t-113.5 46h-62v66h57q54 0 92 37t38 92q0 52 -38 88.5t-92 36.5q-52 0 -88 -34.5t-36 -84.5h-74q0 80 57.5 135t140.5 55t141 -55.5t58 -134.5q0 -50 -26.5 -91t-71.5 -65q63 -29 101 -83t38 -123 q0 -98 -68 -167t-167 -69q-98 0 -167 65.5t-69 157.5z" />
<glyph unicode="&#xb4;" horiz-adv-x="108" d="M70 1229l188 307h141l-215 -307h-114z" />
<glyph unicode="&#xb5;" horiz-adv-x="1208" d="M172 -512v1536h133v-627q0 -123 87 -210t210 -87q126 0 214.5 87t88.5 210v627h135v-1024h-135v164q-56 -86 -144 -135t-190 -49q-176 0 -295 129v-621h-104z" />
<glyph unicode="&#xb6;" horiz-adv-x="1255" d="M213 1194q0 165 97 253.5t268 88.5h151v-1843h-80v1157h-71q-171 0 -268 89.5t-97 254.5zM922 -307v1843h79v-1843h-79z" />
<glyph unicode="&#xb7;" horiz-adv-x="552" d="M193 737q0 34 24.5 59t58.5 25t59 -25t25 -59q0 -35 -25 -59.5t-59 -24.5t-58.5 24.5t-24.5 59.5z" />
<glyph unicode="&#xb8;" horiz-adv-x="108" d="M70 -412l65 33q26 -34 75 -57t93 -23q55 0 92 37.5t37 93.5q0 77 -63.5 108t-155.5 -1l-63 45l86 176h75l-65 -143q109 22 185.5 -32.5t76.5 -152.5q0 -86 -59.5 -145t-145.5 -59q-66 0 -133.5 34.5t-99.5 85.5z" />
<glyph unicode="&#xb9;" horiz-adv-x="522" d="M72 1468v68h196v-768h-78v700h-118z" />
<glyph unicode="&#xba;" horiz-adv-x="782" d="M63 1229q0 132 96.5 225.5t231.5 93.5q136 0 232 -93.5t96 -225.5q0 -133 -95.5 -226.5t-232.5 -93.5q-135 0 -231.5 93.5t-96.5 226.5zM141 1229q0 -104 73 -177t177 -73q103 0 176.5 73t73.5 177q0 103 -73.5 175.5t-176.5 72.5q-104 0 -177 -72.5t-73 -175.5z" />
<glyph unicode="&#xbb;" horiz-adv-x="1253" d="M233 195l312 376l-312 377h119l312 -377l-312 -376h-119zM586 195l311 376l-311 377h121l311 -377l-311 -376h-121z" />
<glyph unicode="&#xbf;" horiz-adv-x="1114" d="M129 -94q0 70 16 126t41.5 91t58.5 65t67.5 49t67.5 42t58.5 45t41.5 56.5t16 78.5v157h122v-139q0 -75 -20.5 -129.5t-53 -86t-71.5 -56t-78 -48t-71.5 -52.5t-53 -79.5t-20.5 -119.5q0 -129 86 -210t221 -81q126 0 212 77.5t95 198.5h121q-6 -172 -127 -283.5 t-301 -111.5q-187 0 -307.5 115.5t-120.5 294.5zM449 958q0 42 30 71.5t70 29.5q41 0 70.5 -29.5t29.5 -71.5q0 -40 -29.5 -70t-70.5 -30q-40 0 -70 30t-30 70z" />
<glyph unicode="&#xc0;" d="M47 0l617 1536h153l617 -1536h-152l-129 334h-825l-129 -334h-152zM375 453h731l-367 938zM463 2048h141l189 -307h-115z" />
<glyph unicode="&#xc1;" d="M47 0l617 1536h153l617 -1536h-152l-129 334h-825l-129 -334h-152zM375 453h731l-367 938zM688 1741l189 307h141l-215 -307h-115z" />
<glyph unicode="&#xc2;" d="M47 0l617 1536h153l617 -1536h-152l-129 334h-825l-129 -334h-152zM375 453h731l-367 938zM463 1698l205 350h145l205 -350h-115l-162 280l-163 -280h-115z" />
<glyph unicode="&#xc3;" d="M47 0l617 1536h153l617 -1536h-152l-129 334h-825l-129 -334h-152zM375 453h731l-367 938zM408 1747q-10 107 43 176.5t143 69.5q115 0 184 -109q41 -67 109 -67q51 0 79 43t21 112h88q12 -106 -41 -174.5t-145 -68.5q-117 0 -184 108q-42 68 -107 68q-53 0 -81 -44.5 t-19 -113.5h-90z" />
<glyph unicode="&#xc4;" d="M47 0l617 1536h153l617 -1536h-152l-129 334h-825l-129 -334h-152zM375 453h731l-367 938zM463 1831q0 41 29.5 70.5t70.5 29.5q40 0 70.5 -29.5t30.5 -70.5t-30.5 -70.5t-70.5 -29.5q-41 0 -70.5 29.5t-29.5 70.5zM821 1831q0 41 30 70.5t71 29.5q40 0 69 -29.5 t29 -70.5t-29 -70.5t-69 -29.5q-41 0 -71 29.5t-30 70.5z" />
<glyph unicode="&#xc5;" d="M47 0l600 1497q-46 25 -74 71t-28 101q0 82 57.5 139.5t140.5 57.5q80 0 137.5 -58t57.5 -139q0 -56 -28.5 -102.5t-75.5 -71.5l600 -1495h-152l-129 334h-825l-129 -334h-152zM375 453h731l-367 938zM614 1669q0 -55 37.5 -92t91.5 -37q53 0 90 37t37 92q0 54 -37 91.5 t-90 37.5q-54 0 -91.5 -37.5t-37.5 -91.5z" />
<glyph unicode="&#xc6;" horiz-adv-x="1792" d="M47 0l617 1536h1011v-121h-690v-592h604v-110h-604v-592h690v-121h-825v344h-516l-131 -344h-156zM381 455h469v960h-88z" />
<glyph unicode="&#xc7;" horiz-adv-x="1396" d="M109 768q0 216 95.5 396t268 286t385.5 106q250 0 442 -159v-170q-186 198 -442 198q-179 0 -321 -87.5t-219.5 -237.5t-77.5 -332t77.5 -331t219.5 -236.5t321 -87.5q261 0 442 196v-168q-178 -149 -411 -161l-58 -123q109 22 186 -32.5t77 -152.5q0 -86 -59.5 -145 t-145.5 -59q-66 0 -134 34.5t-100 85.5l66 33q26 -34 75 -57t93 -23q55 0 92 37.5t37 93.5q0 77 -63.5 108t-155.5 -1l-64 45l76 158q-202 11 -363.5 119t-250 283.5t-88.5 383.5z" />
<glyph unicode="&#xc8;" horiz-adv-x="1107" d="M164 0v1536h827v-123h-688v-582h602v-124h-602v-582h688v-125h-827zM299 2048h141l189 -307h-115z" />
<glyph unicode="&#xc9;" horiz-adv-x="1107" d="M164 0v1536h827v-123h-688v-582h602v-124h-602v-582h688v-125h-827zM524 1741l189 307h141l-215 -307h-115z" />
<glyph unicode="&#xca;" horiz-adv-x="1107" d="M164 0v1536h827v-123h-688v-582h602v-124h-602v-582h688v-125h-827zM299 1698l205 350h145l205 -350h-115l-161 280l-164 -280h-115z" />
<glyph unicode="&#xcb;" horiz-adv-x="1107" d="M164 0v1536h827v-123h-688v-582h602v-124h-602v-582h688v-125h-827zM299 1831q0 41 29.5 70.5t70.5 29.5q40 0 70.5 -29.5t30.5 -70.5t-30.5 -70.5t-70.5 -29.5q-41 0 -70.5 29.5t-29.5 70.5zM657 1831q0 41 30 70.5t71 29.5q40 0 69 -29.5t29 -70.5t-29 -70.5t-69 -29.5 q-41 0 -71 29.5t-30 70.5z" />
<glyph unicode="&#xcc;" horiz-adv-x="466" d="M-49 2048h143l189 -307h-115zM164 0v1536h139v-1536h-139z" />
<glyph unicode="&#xcd;" horiz-adv-x="466" d="M164 0v1536h139v-1536h-139zM180 1741l189 307h141l-215 -307h-115z" />
<glyph unicode="&#xce;" horiz-adv-x="466" d="M-47 1698l207 350h145l205 -350h-115l-162 280l-163 -280h-117zM164 0v1536h139v-1536h-139z" />
<glyph unicode="&#xcf;" horiz-adv-x="466" d="M-49 1831q0 41 30.5 70.5t71.5 29.5q40 0 70.5 -29.5t30.5 -70.5t-30.5 -70.5t-70.5 -29.5q-41 0 -71.5 29.5t-30.5 70.5zM164 0v1536h139v-1536h-139zM311 1831q0 41 30 70.5t71 29.5q40 0 69 -29.5t29 -70.5t-29 -70.5t-69 -29.5q-41 0 -71 29.5t-30 70.5z" />
<glyph unicode="&#xd0;" horiz-adv-x="1447" d="M4 719v100h160v717h407q209 0 385.5 -103t279.5 -279.5t103 -385.5t-103 -385.5t-279.5 -279.5t-385.5 -103h-407v719h-160zM301 125h268q130 0 247 50.5t201 136.5t133.5 205t49.5 251t-49.5 251.5t-133.5 205.5t-201 137t-247 51h-268v-594h281v-100h-281v-594z" />
<glyph unicode="&#xd1;" horiz-adv-x="1566" d="M164 0v1536h125l977 -1303v1303h137v-1536h-125l-975 1303v-1303h-139zM442 1747q-10 106 43.5 176t143.5 70q115 0 184 -109q41 -67 109 -67q51 0 79 43t21 112h88q12 -106 -41 -174.5t-145 -68.5q-118 0 -185 108q-42 68 -106 68q-53 0 -81.5 -44.5t-19.5 -113.5h-90z " />
<glyph unicode="&#xd2;" horiz-adv-x="1716" d="M109 768q0 216 95.5 396t268 286t385.5 106q160 0 300 -62t238.5 -168t155 -251t56.5 -307t-56.5 -307t-155 -251t-238.5 -168t-300 -62q-213 0 -385.5 106t-268 286t-95.5 396zM240 768q0 -182 77.5 -331t219.5 -236.5t321 -87.5q134 0 250 51t196 139t125.5 208.5 t45.5 256.5q0 183 -77.5 332.5t-219 237t-320.5 87.5t-321 -87.5t-219.5 -237.5t-77.5 -332zM580 2048h141l188 -307h-114z" />
<glyph unicode="&#xd3;" horiz-adv-x="1716" d="M109 768q0 216 95.5 396t268 286t385.5 106q160 0 300 -62t238.5 -168t155 -251t56.5 -307t-56.5 -307t-155 -251t-238.5 -168t-300 -62q-213 0 -385.5 106t-268 286t-95.5 396zM240 768q0 -182 77.5 -331t219.5 -236.5t321 -87.5q134 0 250 51t196 139t125.5 208.5 t45.5 256.5q0 183 -77.5 332.5t-219 237t-320.5 87.5t-321 -87.5t-219.5 -237.5t-77.5 -332zM807 1741l188 307h142l-215 -307h-115z" />
<glyph unicode="&#xd4;" horiz-adv-x="1716" d="M109 768q0 216 95.5 396t268 286t385.5 106q160 0 300 -62t238.5 -168t155 -251t56.5 -307t-56.5 -307t-155 -251t-238.5 -168t-300 -62q-213 0 -385.5 106t-268 286t-95.5 396zM240 768q0 -182 77.5 -331t219.5 -236.5t321 -87.5q134 0 250 51t196 139t125.5 208.5 t45.5 256.5q0 183 -77.5 332.5t-219 237t-320.5 87.5t-321 -87.5t-219.5 -237.5t-77.5 -332zM582 1698l204 350h146l205 -350h-115l-162 280l-164 -280h-114z" />
<glyph unicode="&#xd5;" horiz-adv-x="1716" d="M109 768q0 216 95.5 396t268 286t385.5 106q160 0 300 -62t238.5 -168t155 -251t56.5 -307t-56.5 -307t-155 -251t-238.5 -168t-300 -62q-213 0 -385.5 106t-268 286t-95.5 396zM240 768q0 -182 77.5 -331t219.5 -236.5t321 -87.5q134 0 250 51t196 139t125.5 208.5 t45.5 256.5q0 183 -77.5 332.5t-219 237t-320.5 87.5t-321 -87.5t-219.5 -237.5t-77.5 -332zM524 1747q-10 106 43.5 176t143.5 70q115 0 184 -109q41 -67 109 -67q51 0 79 43t21 112h88q12 -106 -41 -174.5t-145 -68.5q-118 0 -185 108q-42 68 -106 68q-53 0 -81.5 -44.5 t-19.5 -113.5h-90z" />
<glyph unicode="&#xd6;" horiz-adv-x="1716" d="M109 768q0 216 95.5 396t268 286t385.5 106q160 0 300 -62t238.5 -168t155 -251t56.5 -307t-56.5 -307t-155 -251t-238.5 -168t-300 -62q-213 0 -385.5 106t-268 286t-95.5 396zM240 768q0 -182 77.5 -331t219.5 -236.5t321 -87.5q134 0 250 51t196 139t125.5 208.5 t45.5 256.5q0 183 -77.5 332.5t-219 237t-320.5 87.5t-321 -87.5t-219.5 -237.5t-77.5 -332zM580 1831q0 41 29.5 70.5t70.5 29.5q40 0 70 -29.5t30 -70.5t-30 -70.5t-70 -29.5q-41 0 -70.5 29.5t-29.5 70.5zM938 1831q0 41 29.5 70.5t70.5 29.5q40 0 69.5 -29.5t29.5 -70.5 t-29.5 -70.5t-69.5 -29.5q-41 0 -70.5 29.5t-29.5 70.5z" />
<glyph unicode="&#xd7;" horiz-adv-x="1497" d="M291 225l409 410l-409 412l76 75l409 -411l412 411l76 -75l-412 -412l412 -410l-76 -75l-412 409l-409 -409z" />
<glyph unicode="&#xd8;" horiz-adv-x="1716" d="M109 768q0 216 95.5 396t268 286t385.5 106q227 0 406 -118l75 112h105l-111 -164q129 -110 202 -271.5t73 -346.5q0 -162 -56.5 -307t-155 -251t-238.5 -168t-300 -62q-220 0 -399 114l-76 -110h-107l111 163q-131 108 -204.5 270.5t-73.5 350.5zM240 768 q0 -156 58 -289t163 -223l729 1073q-148 96 -332 96q-179 0 -321 -87.5t-219.5 -237.5t-77.5 -332zM532 203q145 -90 326 -90q134 0 250 51t196 139t125.5 208.5t45.5 256.5q0 154 -56.5 286t-158.5 222z" />
<glyph unicode="&#xd9;" horiz-adv-x="1474" d="M170 506v1030h139v-1010q0 -175 125 -298.5t303 -123.5q180 0 305 123.5t125 298.5v1010h138v-1030q0 -144 -76 -265t-206.5 -191t-285.5 -70t-285.5 70t-206 191t-75.5 265zM459 2048h141l188 -307h-114z" />
<glyph unicode="&#xda;" horiz-adv-x="1474" d="M170 506v1030h139v-1010q0 -175 125 -298.5t303 -123.5q180 0 305 123.5t125 298.5v1010h138v-1030q0 -144 -76 -265t-206.5 -191t-285.5 -70t-285.5 70t-206 191t-75.5 265zM686 1741l188 307h142l-215 -307h-115z" />
<glyph unicode="&#xdb;" horiz-adv-x="1474" d="M170 506v1030h139v-1010q0 -175 125 -298.5t303 -123.5q180 0 305 123.5t125 298.5v1010h138v-1030q0 -144 -76 -265t-206.5 -191t-285.5 -70t-285.5 70t-206 191t-75.5 265zM461 1698l205 350h145l205 -350h-115l-162 280l-164 -280h-114z" />
<glyph unicode="&#xdc;" horiz-adv-x="1474" d="M170 506v1030h139v-1010q0 -175 125 -298.5t303 -123.5q180 0 305 123.5t125 298.5v1010h138v-1030q0 -144 -76 -265t-206.5 -191t-285.5 -70t-285.5 70t-206 191t-75.5 265zM459 1831q0 41 29.5 70.5t70.5 29.5q40 0 70 -29.5t30 -70.5t-30 -70.5t-70 -29.5 q-41 0 -70.5 29.5t-29.5 70.5zM817 1831q0 41 30 70.5t71 29.5q40 0 69 -29.5t29 -70.5t-29 -70.5t-69 -29.5q-41 0 -71 29.5t-30 70.5z" />
<glyph unicode="&#xdd;" horiz-adv-x="1302" d="M47 1536h156l448 -688l451 688h153l-534 -807v-729h-137v725zM600 1741l188 307h142l-215 -307h-115z" />
<glyph unicode="&#xde;" horiz-adv-x="1189" d="M164 0v1325v203h135v-203h397q175 0 298.5 -123.5t123.5 -300.5q0 -173 -123.5 -295.5t-298.5 -122.5h-397v-483h-135zM299 604h393q126 0 213.5 87.5t87.5 213.5q0 124 -88 211.5t-213 87.5h-393v-600z" />
<glyph unicode="&#xdf;" horiz-adv-x="1351" d="M193 0v1108q0 185 133.5 306.5t335.5 121.5q196 0 324 -117.5t128 -294.5q0 -106 -47 -196t-129 -148q119 -50 191.5 -154.5t72.5 -232.5q0 -172 -117.5 -292.5t-279.5 -120.5q-88 0 -181 37.5t-151 97.5l62 98q43 -44 111 -75.5t136 -31.5q115 2 200 86.5t85 206.5 q0 126 -90 213.5t-219 87.5h-127v115h53q126 0 213.5 88.5t87.5 216.5t-90.5 211.5t-230.5 83.5q-145 0 -241.5 -87t-96.5 -220v-1108h-133z" />
<glyph unicode="&#xe0;" horiz-adv-x="1097" d="M92 293q0 72 27 130t88 103t158 55t237 -14l205 -39v148q0 126 -78.5 189t-206.5 63q-102 0 -181.5 -41t-121.5 -117l-94 82q56 90 159 141t246 51q117 0 207 -39.5t145.5 -125.5t55.5 -209v-670h-121l-6 168q-92 -89 -197.5 -138.5t-210.5 -49.5q-136 0 -223.5 88 t-87.5 225zM229 299q0 -88 55.5 -143.5t147.5 -55.5q187 0 375 191v133l-203 43q-195 39 -285 -13.5t-90 -154.5zM268 1536h142l188 -307h-115z" />
<glyph unicode="&#xe1;" horiz-adv-x="1097" d="M92 293q0 72 27 130t88 103t158 55t237 -14l205 -39v148q0 126 -78.5 189t-206.5 63q-102 0 -181.5 -41t-121.5 -117l-94 82q56 90 159 141t246 51q117 0 207 -39.5t145.5 -125.5t55.5 -209v-670h-121l-6 168q-92 -89 -197.5 -138.5t-210.5 -49.5q-136 0 -223.5 88 t-87.5 225zM229 299q0 -88 55.5 -143.5t147.5 -55.5q187 0 375 191v133l-203 43q-195 39 -285 -13.5t-90 -154.5zM494 1229l188 307h141l-215 -307h-114z" />
<glyph unicode="&#xe2;" horiz-adv-x="1097" d="M92 293q0 72 27 130t88 103t158 55t237 -14l205 -39v148q0 126 -78.5 189t-206.5 63q-102 0 -181.5 -41t-121.5 -117l-94 82q56 90 159 141t246 51q117 0 207 -39.5t145.5 -125.5t55.5 -209v-670h-121l-6 168q-92 -89 -197.5 -138.5t-210.5 -49.5q-136 0 -223.5 88 t-87.5 225zM229 299q0 -88 55.5 -143.5t147.5 -55.5q187 0 375 191v133l-203 43q-195 39 -285 -13.5t-90 -154.5zM268 1186l205 350h145l205 -350h-114l-162 280l-164 -280h-115z" />
<glyph unicode="&#xe3;" horiz-adv-x="1097" d="M92 293q0 72 27 130t88 103t158 55t237 -14l205 -39v148q0 126 -78.5 189t-206.5 63q-102 0 -181.5 -41t-121.5 -117l-94 82q56 90 159 141t246 51q117 0 207 -39.5t145.5 -125.5t55.5 -209v-670h-121l-6 168q-92 -89 -197.5 -138.5t-210.5 -49.5q-136 0 -223.5 88 t-87.5 225zM213 1235q-10 107 43 176.5t143 69.5q116 0 185 -109q41 -67 108 -67q51 0 79.5 43t21.5 112h88q12 -105 -41 -174t-146 -69q-117 0 -184 108q-42 68 -107 68q-53 0 -81 -44.5t-19 -113.5h-90zM229 299q0 -88 55.5 -143.5t147.5 -55.5q187 0 375 191v133l-203 43 q-195 39 -285 -13.5t-90 -154.5z" />
<glyph unicode="&#xe4;" horiz-adv-x="1097" d="M92 293q0 72 27 130t88 103t158 55t237 -14l205 -39v148q0 126 -78.5 189t-206.5 63q-102 0 -181.5 -41t-121.5 -117l-94 82q56 90 159 141t246 51q117 0 207 -39.5t145.5 -125.5t55.5 -209v-670h-121l-6 168q-92 -89 -197.5 -138.5t-210.5 -49.5q-136 0 -223.5 88 t-87.5 225zM229 299q0 -88 55.5 -143.5t147.5 -55.5q187 0 375 191v133l-203 43q-195 39 -285 -13.5t-90 -154.5zM268 1319q0 41 30 70.5t71 29.5q40 0 70 -29.5t30 -70.5t-30 -70.5t-70 -29.5q-41 0 -71 29.5t-30 70.5zM627 1319q0 41 29.5 70.5t70.5 29.5q40 0 69 -29.5 t29 -70.5t-29 -70.5t-69 -29.5q-41 0 -70.5 29.5t-29.5 70.5z" />
<glyph unicode="&#xe5;" horiz-adv-x="1097" d="M92 293q0 72 27 130t88 103t158 55t237 -14l205 -39v148q0 126 -78.5 189t-206.5 63q-102 0 -181.5 -41t-121.5 -117l-94 82q56 90 159 141t246 51q117 0 207 -39.5t145.5 -125.5t55.5 -209v-670h-121l-6 168q-92 -89 -197.5 -138.5t-210.5 -49.5q-136 0 -223.5 88 t-87.5 225zM229 299q0 -88 55.5 -143.5t147.5 -55.5q187 0 375 191v133l-203 43q-195 39 -285 -13.5t-90 -154.5zM348 1346q0 82 58 140t141 58q80 0 137 -58t57 -140q0 -80 -57.5 -138.5t-136.5 -58.5q-83 0 -141 58.5t-58 138.5zM418 1346q0 -54 37.5 -90.5t91.5 -36.5 q53 0 90 36.5t37 90.5t-37.5 92.5t-89.5 38.5q-54 0 -91.5 -38.5t-37.5 -92.5z" />
<glyph unicode="&#xe6;" horiz-adv-x="1816" d="M86 293q0 72 27 130t87.5 103t157.5 55t238 -14l180 -35q3 69 23 152q-3 122 -81 183t-204 61q-102 0 -180.5 -41t-122.5 -117l-94 82q55 90 159.5 141t245.5 51q138 0 232 -47.5t129 -138.5q64 88 161 137t218 49q214 0 341.5 -146t127.5 -378q0 -35 -2 -53h-820 q11 -165 106 -267t251 -102q100 0 171.5 41t131.5 133l96 -67q-134 -225 -403 -225q-138 0 -244.5 63t-169.5 174q-103 -115 -219 -176t-232 -61q-137 0 -224 88t-87 225zM221 299q0 -88 55.5 -143.5t147.5 -55.5q186 0 385 205q-22 70 -29 123l-182 39q-106 19 -178 14.5 t-116.5 -32.5t-63.5 -65.5t-19 -84.5zM911 573h697q-11 160 -102.5 257.5t-241.5 97.5t-242.5 -97t-110.5 -258z" />
<glyph unicode="&#xe7;" horiz-adv-x="933" d="M86 512q0 230 132 381t349 151q160 0 277 -94v-139q-107 117 -264 117q-163 0 -263 -118t-100 -298q0 -178 100 -297t263 -119q77 0 146.5 31t117.5 84v-137q-106 -87 -256 -94l-58 -123q109 22 186 -32.5t77 -152.5q0 -86 -59.5 -145t-145.5 -59q-66 0 -134 34.5 t-100 85.5l66 33q26 -34 75 -57t93 -23q55 0 92 37.5t37 93.5q0 77 -63.5 108t-155.5 -1l-64 45l78 158q-195 21 -310.5 168t-115.5 362z" />
<glyph unicode="&#xe8;" horiz-adv-x="1124" d="M86 512q0 150 58.5 270.5t170 191t256.5 70.5q213 0 341 -146t128 -378q0 -35 -2 -53h-821q12 -167 107 -268t251 -101q100 0 172 41t132 133l94 -67q-63 -108 -165 -166.5t-237 -58.5q-145 0 -256.5 70.5t-170 190.5t-58.5 271zM219 573h699q-14 160 -105.5 257.5 t-239.5 97.5q-150 0 -243 -97.5t-111 -257.5zM293 1548h141l189 -307h-115z" />
<glyph unicode="&#xe9;" horiz-adv-x="1124" d="M86 512q0 150 58.5 270.5t170 191t256.5 70.5q213 0 341 -146t128 -378q0 -35 -2 -53h-821q12 -167 107 -268t251 -101q100 0 172 41t132 133l94 -67q-63 -108 -165 -166.5t-237 -58.5q-145 0 -256.5 70.5t-170 190.5t-58.5 271zM219 573h699q-14 160 -105.5 257.5 t-239.5 97.5q-150 0 -243 -97.5t-111 -257.5zM520 1241l189 307h141l-215 -307h-115z" />
<glyph unicode="&#xea;" horiz-adv-x="1124" d="M86 512q0 150 58.5 270.5t170 191t256.5 70.5q213 0 341 -146t128 -378q0 -35 -2 -53h-821q12 -167 107 -268t251 -101q100 0 172 41t132 133l94 -67q-63 -108 -165 -166.5t-237 -58.5q-145 0 -256.5 70.5t-170 190.5t-58.5 271zM219 573h699q-14 160 -105.5 257.5 t-239.5 97.5q-150 0 -243 -97.5t-111 -257.5zM295 1198l205 350h145l205 -350h-115l-162 281l-163 -281h-115z" />
<glyph unicode="&#xeb;" horiz-adv-x="1124" d="M86 512q0 150 58.5 270.5t170 191t256.5 70.5q213 0 341 -146t128 -378q0 -35 -2 -53h-821q12 -167 107 -268t251 -101q100 0 172 41t132 133l94 -67q-63 -108 -165 -166.5t-237 -58.5q-145 0 -256.5 70.5t-170 190.5t-58.5 271zM219 573h699q-14 160 -105.5 257.5 t-239.5 97.5q-150 0 -243 -97.5t-111 -257.5zM293 1331q0 41 29.5 71t70.5 30q40 0 70.5 -30t30.5 -71t-30.5 -70.5t-70.5 -29.5q-41 0 -70.5 29.5t-29.5 70.5zM651 1331q0 41 30 71t71 30q40 0 69 -30t29 -71t-29 -70.5t-69 -29.5q-41 0 -71 29.5t-30 70.5z" />
<glyph unicode="&#xec;" horiz-adv-x="462" d="M-49 1536h143l189 -307h-115zM164 0v1024h135v-1024h-135z" />
<glyph unicode="&#xed;" horiz-adv-x="462" d="M164 0v1024h135v-1024h-135zM180 1229l189 307h141l-215 -307h-115z" />
<glyph unicode="&#xee;" horiz-adv-x="462" d="M-49 1186l207 350h145l205 -350h-115l-162 280l-163 -280h-117zM164 0v1024h135v-1024h-135z" />
<glyph unicode="&#xef;" horiz-adv-x="462" d="M-49 1319q0 41 30.5 70.5t71.5 29.5q40 0 70.5 -29.5t30.5 -70.5t-30.5 -70.5t-70.5 -29.5q-41 0 -71.5 29.5t-30.5 70.5zM164 0v1024h135v-1024h-135zM311 1319q0 41 30 70.5t71 29.5q40 0 69 -29.5t29 -70.5t-29 -70.5t-69 -29.5q-41 0 -71 29.5t-30 70.5z" />
<glyph unicode="&#xf0;" horiz-adv-x="1265" d="M86 512q0 145 73 267.5t198.5 193.5t273.5 71q203 0 352 -124q-76 240 -246 383l-114 -146l-52 43l113 141q-157 106 -342 109l23 111q211 0 391 -125l96 120l51 -40l-94 -121q171 -142 270 -374.5t99 -508.5q0 -145 -73 -267.5t-199 -193.5t-275 -71q-148 0 -273.5 71 t-198.5 193.5t-73 267.5zM219 512q0 -170 121 -291t291 -121t290.5 121t120.5 291q0 113 -55 207.5t-149.5 149.5t-206.5 55q-171 0 -291.5 -120.5t-120.5 -291.5z" />
<glyph unicode="&#xf1;" horiz-adv-x="1191" d="M164 0v1024h125l6 -154q57 81 146 127.5t194 46.5q169 0 283 -113.5t114 -283.5v-647h-135v635q0 122 -85.5 205.5t-209.5 83.5q-126 0 -214.5 -86t-88.5 -209v-629h-135zM264 1235q-10 106 43.5 176t143.5 70q115 0 184 -109q41 -67 108 -67q51 0 79.5 43t21.5 112h88 q12 -105 -41 -174t-146 -69q-117 0 -184 108q-42 68 -106 68q-53 0 -81.5 -44.5t-19.5 -113.5h-90z" />
<glyph unicode="&#xf2;" horiz-adv-x="1157" d="M86 512q0 147 61 268t174.5 192.5t256.5 71.5q144 0 257.5 -71.5t174.5 -192.5t61 -268t-61 -268t-174.5 -192.5t-257.5 -71.5q-143 0 -256.5 71.5t-174.5 192.5t-61 268zM217 512q0 -174 100 -293t261 -119q162 0 261 118.5t99 293.5q0 176 -99 294t-261 118 q-161 0 -261 -118t-100 -294zM299 1536h141l189 -307h-115z" />
<glyph unicode="&#xf3;" horiz-adv-x="1157" d="M86 512q0 147 61 268t174.5 192.5t256.5 71.5q144 0 257.5 -71.5t174.5 -192.5t61 -268t-61 -268t-174.5 -192.5t-257.5 -71.5q-143 0 -256.5 71.5t-174.5 192.5t-61 268zM217 512q0 -174 100 -293t261 -119q162 0 261 118.5t99 293.5q0 176 -99 294t-261 118 q-161 0 -261 -118t-100 -294zM526 1229l189 307h141l-215 -307h-115z" />
<glyph unicode="&#xf4;" horiz-adv-x="1157" d="M86 512q0 147 61 268t174.5 192.5t256.5 71.5q144 0 257.5 -71.5t174.5 -192.5t61 -268t-61 -268t-174.5 -192.5t-257.5 -71.5q-143 0 -256.5 71.5t-174.5 192.5t-61 268zM217 512q0 -174 100 -293t261 -119q162 0 261 118.5t99 293.5q0 176 -99 294t-261 118 q-161 0 -261 -118t-100 -294zM301 1186l205 350h145l205 -350h-115l-161 280l-164 -280h-115z" />
<glyph unicode="&#xf5;" horiz-adv-x="1157" d="M86 512q0 147 61 268t174.5 192.5t256.5 71.5q144 0 257.5 -71.5t174.5 -192.5t61 -268t-61 -268t-174.5 -192.5t-257.5 -71.5q-143 0 -256.5 71.5t-174.5 192.5t-61 268zM217 512q0 -174 100 -293t261 -119q162 0 261 118.5t99 293.5q0 176 -99 294t-261 118 q-161 0 -261 -118t-100 -294zM244 1235q-10 107 43 176.5t143 69.5q115 0 184 -109q41 -67 109 -67q51 0 79 43t21 112h88q12 -106 -41 -174.5t-145 -68.5q-117 0 -184 108q-42 68 -107 68q-53 0 -81 -44.5t-19 -113.5h-90z" />
<glyph unicode="&#xf6;" horiz-adv-x="1157" d="M86 512q0 147 61 268t174.5 192.5t256.5 71.5q144 0 257.5 -71.5t174.5 -192.5t61 -268t-61 -268t-174.5 -192.5t-257.5 -71.5q-143 0 -256.5 71.5t-174.5 192.5t-61 268zM217 512q0 -174 100 -293t261 -119q162 0 261 118.5t99 293.5q0 176 -99 294t-261 118 q-161 0 -261 -118t-100 -294zM299 1319q0 41 29.5 70.5t70.5 29.5q40 0 70.5 -29.5t30.5 -70.5t-30.5 -70.5t-70.5 -29.5q-41 0 -70.5 29.5t-29.5 70.5zM657 1319q0 41 30 70.5t71 29.5q40 0 69 -29.5t29 -70.5t-29 -70.5t-69 -29.5q-41 0 -71 29.5t-30 70.5z" />
<glyph unicode="&#xf7;" horiz-adv-x="1488" d="M131 524v80h1229v-80h-1229zM651 215q0 38 28.5 66t65.5 28t66 -28t29 -66q0 -39 -28.5 -65.5t-66.5 -26.5t-66 26.5t-28 65.5zM651 911q0 38 28.5 66.5t65.5 28.5t66 -28.5t29 -66.5q0 -39 -28.5 -65.5t-66.5 -26.5t-66 26.5t-28 65.5z" />
<glyph unicode="&#xf8;" horiz-adv-x="1157" d="M86 512q0 147 61 268t174.5 192.5t256.5 71.5q152 0 270 -79l82 118h76l-107 -157q82 -74 127 -181.5t45 -232.5q0 -147 -61 -268t-174.5 -192.5t-257.5 -71.5q-150 0 -269 77l-80 -118h-77l108 157q-83 74 -128.5 182t-45.5 234zM217 512q0 -191 115 -309l446 657 q-86 64 -200 64q-161 0 -261 -118t-100 -294zM381 160q86 -60 197 -60q162 0 261 118.5t99 293.5q0 188 -113 307z" />
<glyph unicode="&#xf9;" horiz-adv-x="1198" d="M166 383v641h135v-627q0 -123 86.5 -210t210.5 -87q125 0 214 87t89 210v627h133v-1024h-123l-8 156q-57 -81 -145 -128.5t-189 -47.5q-168 0 -285.5 117.5t-117.5 285.5zM322 1536h141l188 -307h-114z" />
<glyph unicode="&#xfa;" horiz-adv-x="1198" d="M166 383v641h135v-627q0 -123 86.5 -210t210.5 -87q125 0 214 87t89 210v627h133v-1024h-123l-8 156q-57 -81 -145 -128.5t-189 -47.5q-168 0 -285.5 117.5t-117.5 285.5zM549 1229l188 307h142l-215 -307h-115z" />
<glyph unicode="&#xfb;" horiz-adv-x="1198" d="M166 383v641h135v-627q0 -123 86.5 -210t210.5 -87q125 0 214 87t89 210v627h133v-1024h-123l-8 156q-57 -81 -145 -128.5t-189 -47.5q-168 0 -285.5 117.5t-117.5 285.5zM324 1186l204 350h146l205 -350h-115l-162 280l-164 -280h-114z" />
<glyph unicode="&#xfc;" horiz-adv-x="1198" d="M166 383v641h135v-627q0 -123 86.5 -210t210.5 -87q125 0 214 87t89 210v627h133v-1024h-123l-8 156q-57 -81 -145 -128.5t-189 -47.5q-168 0 -285.5 117.5t-117.5 285.5zM322 1319q0 41 29.5 70.5t70.5 29.5q40 0 70 -29.5t30 -70.5t-30 -70.5t-70 -29.5 q-41 0 -70.5 29.5t-29.5 70.5zM680 1319q0 41 29.5 70.5t70.5 29.5q40 0 69.5 -29.5t29.5 -70.5t-29.5 -70.5t-69.5 -29.5q-41 0 -70.5 29.5t-29.5 70.5z" />
<glyph unicode="&#xfd;" horiz-adv-x="1200" d="M166 383v641h135v-627q0 -123 86.5 -210t210.5 -87q125 0 214 87t89 210v627h133l2 -1075q0 -102 -28 -187t-82.5 -150t-143.5 -101.5t-204 -36.5q-212 0 -361 112v152q151 -144 369 -144q162 0 238.5 95t76.5 260v201q-58 -78 -145.5 -124t-186.5 -46 q-168 0 -285.5 117.5t-117.5 285.5zM549 1229l188 307h142l-215 -307h-115z" />
<glyph unicode="&#xfe;" horiz-adv-x="1333" d="M164 -510v2046h135v-735q67 112 179.5 177.5t248.5 65.5q142 0 262.5 -71t190 -193.5t69.5 -267.5t-69.5 -267.5t-190 -193.5t-262.5 -71q-136 0 -248.5 65.5t-179.5 177.5v-733h-135zM299 512q0 -170 121 -291t291 -121t290.5 121t120.5 291q0 113 -55 207.5 t-149.5 149.5t-206.5 55q-171 0 -291.5 -120.5t-120.5 -291.5z" />
<glyph unicode="&#xff;" horiz-adv-x="1200" d="M166 383v641h135v-627q0 -123 86.5 -210t210.5 -87q125 0 214 87t89 210v627h133l2 -1075q0 -102 -28 -187t-82.5 -150t-143.5 -101.5t-204 -36.5q-212 0 -361 112v152q151 -144 369 -144q162 0 238.5 95t76.5 260v201q-58 -78 -145.5 -124t-186.5 -46 q-168 0 -285.5 117.5t-117.5 285.5zM322 1319q0 41 29.5 70.5t70.5 29.5q40 0 70 -29.5t30 -70.5t-30 -70.5t-70 -29.5q-41 0 -70.5 29.5t-29.5 70.5zM680 1319q0 41 29.5 70.5t70.5 29.5q40 0 69.5 -29.5t29.5 -70.5t-29.5 -70.5t-69.5 -29.5q-41 0 -70.5 29.5t-29.5 70.5z " />
<glyph unicode="&#x152;" horiz-adv-x="2611" d="M152 768q0 214 105.5 395.5t287 287t395.5 105.5q210 0 388 -101.5t284 -274.5v356h807v-119h-690v-588h604v-120h-604v-588h690v-121h-807v356q-106 -173 -284 -274.5t-388 -101.5q-214 0 -395.5 105.5t-287 287t-105.5 395.5zM285 768q0 -133 51.5 -254.5t139 -209 t209 -139.5t255.5 -52q133 0 254.5 52t209 139.5t139.5 209t52 254.5q0 134 -52 255.5t-139.5 209t-209 139t-254.5 51.5q-135 0 -256 -51.5t-208.5 -139t-139 -208.5t-51.5 -256z" />
<glyph unicode="&#x153;" horiz-adv-x="1980" d="M86 512q0 147 61 268t174.5 192.5t256.5 71.5q141 0 252 -68t174 -185q62 119 170 186t251 67q214 0 341.5 -146t127.5 -378q0 -35 -2 -53h-819q11 -165 106 -267t251 -102q100 0 171.5 41t131.5 133l96 -67q-134 -225 -404 -225q-143 0 -252 67.5t-169 185.5 q-63 -118 -173.5 -185.5t-252.5 -67.5q-143 0 -256.5 71.5t-174.5 192.5t-61 268zM217 512q0 -174 100 -293t261 -119q162 0 261 118.5t99 293.5q0 176 -99 294t-261 118q-161 0 -261 -118t-100 -294zM1075 573h697q-11 160 -103 257.5t-242 97.5t-242 -97t-110 -258z" />
<glyph unicode="&#x178;" horiz-adv-x="1302" d="M47 1536h156l448 -688l451 688h153l-534 -807v-729h-137v725zM375 1831q0 41 29.5 70.5t70.5 29.5q40 0 70 -29.5t30 -70.5t-30 -70.5t-70 -29.5q-41 0 -70.5 29.5t-29.5 70.5zM733 1831q0 41 30 70.5t71 29.5q40 0 69 -29.5t29 -70.5t-29 -70.5t-69 -29.5 q-41 0 -71 29.5t-30 70.5z" />
<glyph unicode="&#x2c6;" horiz-adv-x="108" d="M70 1186l204 350h146l205 -350h-115l-162 280l-164 -280h-114z" />
<glyph unicode="&#x2dc;" horiz-adv-x="114" d="M72 1296q-10 107 43 176.5t143 69.5q116 0 184 -108q42 -68 109 -68q51 0 79 43.5t21 112.5h88q12 -106 -41 -175t-145 -69q-117 0 -184 108q-42 68 -107 68q-53 0 -81 -44.5t-19 -113.5h-90z" />
<glyph unicode="&#x2000;" horiz-adv-x="1024" />
<glyph unicode="&#x2001;" horiz-adv-x="2048" />
<glyph unicode="&#x2002;" horiz-adv-x="1024" />
<glyph unicode="&#x2003;" horiz-adv-x="2048" />
<glyph unicode="&#x2004;" horiz-adv-x="682" />
<glyph unicode="&#x2005;" horiz-adv-x="512" />
<glyph unicode="&#x2006;" horiz-adv-x="341" />
<glyph unicode="&#x2007;" horiz-adv-x="341" />
<glyph unicode="&#x2008;" horiz-adv-x="256" />
<glyph unicode="&#x2009;" horiz-adv-x="409" />
<glyph unicode="&#x200a;" horiz-adv-x="113" />
<glyph unicode="&#x2010;" horiz-adv-x="1099" d="M193 483v99h716v-99h-716z" />
<glyph unicode="&#x2011;" horiz-adv-x="1099" d="M193 483v99h716v-99h-716z" />
<glyph unicode="&#x2012;" horiz-adv-x="1099" d="M193 483v99h716v-99h-716z" />
<glyph unicode="&#x2013;" horiz-adv-x="1406" d="M193 483v99h1024v-99h-1024z" />
<glyph unicode="&#x2014;" horiz-adv-x="2086" d="M20 483v99h2048v-99h-2048z" />
<glyph unicode="&#x2018;" horiz-adv-x="485" d="M71.5 1114q-20.5 141 42.5 283t169 145v-72q-51 -3 -92 -92q-38 -84 -33 -156q3 -51 32 -51q42 0 71.5 -29t29.5 -71q0 -41 -29.5 -69.5t-71.5 -28.5q-98 0 -118.5 141z" />
<glyph unicode="&#x2019;" horiz-adv-x="368" d="M80 1444q0 41 28.5 69.5t71.5 28.5q59 0 90 -57.5t31 -145.5q0 -84 -24.5 -166t-75 -140.5t-113.5 -59.5v71q49 3 86 82.5t37 151.5q0 65 -33 65q-41 0 -69.5 29t-28.5 72z" />
<glyph unicode="&#x201a;" horiz-adv-x="489" d="M88 80q0 43 28.5 71.5t71.5 28.5q66 0 100 -60.5t34 -152.5q0 -84 -26 -164.5t-79.5 -137t-120.5 -56.5v72q57 0 97 74t40 147q0 78 -47 78q-41 0 -69.5 29.5t-28.5 70.5z" />
<glyph unicode="&#x201c;" horiz-adv-x="819" d="M285 1188q0 85 24.5 167t75 140.5t113.5 60.5v-71q-49 -3 -86 -83.5t-37 -152.5q0 -63 33 -63q41 0 69.5 -29.5t28.5 -71.5q0 -43 -28.5 -71.5t-71.5 -28.5q-59 0 -90 58t-31 145zM561 1188q0 85 24.5 167t75 140.5t113.5 60.5v-71q-49 -3 -86 -83.5t-37 -152.5 q0 -63 33 -63q41 0 69.5 -29.5t28.5 -71.5q0 -43 -28.5 -71.5t-71.5 -28.5q-59 0 -90 58t-31 145z" />
<glyph unicode="&#x201d;" horiz-adv-x="788" d="M84 1444q0 41 28.5 69.5t71.5 28.5q59 0 90 -57.5t31 -145.5q0 -84 -24.5 -166t-75 -140.5t-113.5 -59.5v71q49 3 86 82.5t37 151.5q0 65 -33 65q-41 0 -69.5 29t-28.5 72zM360 1444q0 41 29 69.5t72 28.5q59 0 90 -57.5t31 -145.5q0 -84 -24.5 -166t-75 -140.5 t-113.5 -59.5v71q49 3 86 82.5t37 151.5q0 65 -33 65q-41 0 -70 29t-29 72z" />
<glyph unicode="&#x201e;" horiz-adv-x="794" d="M88 80q0 43 28.5 71.5t71.5 28.5q66 0 100 -60.5t34 -152.5q0 -84 -26 -164.5t-79.5 -137t-120.5 -56.5v72q57 0 97 74t40 147q0 78 -47 78q-41 0 -69.5 29.5t-28.5 70.5zM403 80q0 43 29 71.5t72 28.5q66 0 99.5 -60.5t33.5 -152.5q0 -84 -26 -164.5t-79 -137 t-120 -56.5v72q57 0 97 74t40 147q0 78 -47 78q-41 0 -70 29.5t-29 70.5z" />
<glyph unicode="&#x2022;" horiz-adv-x="927" d="M233 662q0 94 69 162.5t163 68.5q92 0 160.5 -68.5t68.5 -162.5q0 -96 -68 -163t-161 -67q-95 0 -163.5 67t-68.5 163z" />
<glyph unicode="&#x2026;" horiz-adv-x="1415" d="M72 80q0 41 30 70.5t70 29.5q41 0 70.5 -29.5t29.5 -70.5t-29.5 -70.5t-70.5 -29.5q-40 0 -70 29.5t-30 70.5zM496 80q0 41 29.5 70.5t70.5 29.5q40 0 70 -29.5t30 -70.5t-30 -70.5t-70 -29.5q-41 0 -70.5 29.5t-29.5 70.5zM903 80q0 41 30 70.5t71 29.5q40 0 70 -29.5 t30 -70.5t-30 -70.5t-70 -29.5q-41 0 -71 29.5t-30 70.5z" />
<glyph unicode="&#x202f;" horiz-adv-x="409" />
<glyph unicode="&#x2039;" horiz-adv-x="694" d="M113 571l311 377h119l-312 -377l312 -376h-119z" />
<glyph unicode="&#x203a;" horiz-adv-x="694" d="M152 195l311 376l-311 377h118l312 -377l-312 -376h-118z" />
<glyph unicode="&#x205f;" horiz-adv-x="512" />
<glyph unicode="&#x20ac;" horiz-adv-x="1318" d="M90 551l47 94h137v238h-184l47 94h137v127q0 200 123 326t318 126q137 0 253.5 -83t157.5 -211l-104 -45q-26 101 -113.5 167t-193.5 66q-151 0 -242.5 -95.5t-91.5 -250.5v-127h424l-47 -94h-377v-238h424l-47 -94h-377v-117q0 -157 91.5 -251.5t242.5 -94.5 q106 0 193.5 65t113.5 166l104 -43q-41 -129 -157.5 -212.5t-253.5 -83.5q-195 0 -318 126.5t-123 327.5v117h-184z" />
<glyph unicode="&#x2122;" horiz-adv-x="1460" d="M41 1466v70h479v-70h-201v-651h-77v651h-201zM604 815v721h84l273 -408l274 408h82v-721h-76v598l-280 -416l-279 414v-596h-78z" />
<glyph unicode="&#x25fc;" horiz-adv-x="1024" d="M0 0v1024h1024v-1024h-1024z" />
</font>
</defs>
</svg>
