<?xml version="1.0" standalone="no"?>
<!DOCTYPE svg PUBLIC "-//W3C//DTD SVG 1.1//EN" "http://www.w3.org/Graphics/SVG/1.1/DTD/svg11.dtd" >
<svg xmlns="http://www.w3.org/2000/svg" xmlns:xlink="http://www.w3.org/1999/xlink" version="1.1">
<metadata></metadata>
<defs>
<font id="orkneymedium" horiz-adv-x="1560" >
<font-face units-per-em="2048" ascent="1536" descent="-512" />
<missing-glyph horiz-adv-x="532" />
<glyph unicode="&#xfb01;" horiz-adv-x="1261" d="M76 850v174h172v98q0 196 134 315t351 119q197 0 377 -86v-206q-186 104 -352 104q-127 0 -205 -69.5t-78 -188.5v-86h631v-1024h-227v850h-404v-850h-227v850h-172z" />
<glyph unicode="&#xfb02;" horiz-adv-x="1472" d="M76 850v174h172v98q0 195 133.5 314.5t347.5 119.5q93 0 195 -20h217v-84l2 -2v-213q-2 0 -2 2l2 -911q0 -77 34.5 -115.5t98.5 -38.5q69 0 113 49l124 -153q-87 -90 -243 -90q-163 0 -260 96t-97 252v1018q-80 22 -157 22q-125 0 -203 -70t-78 -188v-86h260v-174h-260 v-850h-227v850h-172z" />
<glyph horiz-adv-x="0" />
<glyph horiz-adv-x="682" />
<glyph unicode=" "  horiz-adv-x="532" />
<glyph unicode="&#x09;" horiz-adv-x="532" />
<glyph unicode="&#xa0;" horiz-adv-x="532" />
<glyph unicode="!" horiz-adv-x="634" d="M178 119q0 58 41 98.5t98 40.5t98.5 -40.5t41.5 -98.5q0 -57 -41.5 -98t-98.5 -41t-98 41t-41 98zM203 1536h227l-27 -1061h-174z" />
<glyph unicode="&#x22;" horiz-adv-x="952" d="M178 1536h215l-26 -586h-162zM559 1536h215l-26 -586h-162z" />
<glyph unicode="#" horiz-adv-x="1642" d="M129 348l23 166h288l66 438h-291l27 164h284l52 352h161l-47 -352h367l49 352h164l-49 -352h290l-26 -164h-287l-61 -438h286l-22 -166h-287l-53 -348h-162l49 348h-370l-48 -348h-163l49 348h-289zM606 514h367l63 438h-368z" />
<glyph unicode="$" horiz-adv-x="1355" d="M143 297l166 100q46 -96 145 -156.5t226 -60.5q135 0 225 66.5t90 177.5q0 56 -27 100t-73 73.5t-105.5 54.5t-125 47t-131 46.5t-125 58.5t-105.5 76.5t-73 107t-27 145.5q0 86 30 158.5t82 121.5t117 80t139 43v176h201v-178q95 -20 180 -67t144 -111l-133 -115 q-51 58 -126 92.5t-159 34.5q-113 0 -192.5 -60t-79.5 -163q0 -55 27 -98.5t72.5 -73t105 -54.5t125 -47.5t131 -47.5t125 -59t105 -77t72.5 -107.5t27 -144.5q0 -94 -35.5 -172.5t-96 -131t-135 -86t-157.5 -46.5v-172h-201v172q-142 24 -256.5 105.5t-171.5 191.5z" />
<glyph unicode="%" horiz-adv-x="1597" d="M104 1212q0 143 88 243.5t214 100.5q124 0 211.5 -100.5t87.5 -243.5q0 -141 -87.5 -241.5t-211.5 -100.5q-126 0 -214 100.5t-88 241.5zM158 0l1044 1536h236l-1043 -1536h-237zM281 1212q0 -70 37 -119t88 -49t88.5 49t37.5 119q0 71 -37 120.5t-89 49.5 q-51 0 -88 -49.5t-37 -120.5zM893 324q0 142 87.5 242t213.5 100q124 0 211.5 -100.5t87.5 -241.5q0 -143 -87.5 -243.5t-211.5 -100.5q-126 0 -213.5 100.5t-87.5 243.5zM1067 324q0 -71 37 -120.5t88 -49.5t88 49.5t37 120.5q0 70 -37 119t-88 49t-88 -49t-37 -119z" />
<glyph unicode="&#x26;" horiz-adv-x="1490" d="M202.5 443.5q0.5 193.5 135.5 328.5l70 70l-39 39q-55 55 -85 129t-30 151q0 162 116 276.5t279 114.5t279 -114.5t116 -276.5h-202q0 78 -57.5 134.5t-135.5 56.5q-80 0 -137 -57t-57 -138q0 -75 57 -135l557 -553l201 199l143 -144l-199 -198l201 -199l-145 -145 l-201 200l-70 -69q-89 -88 -210 -119.5t-241.5 0t-209.5 119.5q-136 137 -135.5 330.5zM403 442.5q0 -108.5 78 -184.5q79 -78 188 -78t187 78l68 68l-373 372l-70 -69q-78 -78 -78 -186.5z" />
<glyph unicode="'" horiz-adv-x="571" d="M178 1536h215l-26 -586h-162z" />
<glyph unicode="(" horiz-adv-x="837" d="M137 508q0 283 44.5 511t123 376t183 229t227.5 86v-164q-165 -14 -271 -288t-106 -750q0 -473 106 -744.5t271 -285.5v-164q-123 5 -227.5 85t-183 226.5t-123 373.5t-44.5 509z" />
<glyph unicode=")" horiz-adv-x="837" d="M123 -522q165 14 271 285.5t106 744.5q0 476 -106 750t-271 288v164q98 -4 184.5 -55.5t158.5 -151.5t124 -241t81 -334t29 -420t-29 -418.5t-81 -331.5t-124 -239.5t-158.5 -150t-184.5 -54.5v164z" />
<glyph unicode="*" horiz-adv-x="716" d="M96 1217v120l193 -20l-113 156l103 61l79 -176l80 176l105 -61l-115 -156l193 20v-120l-193 20l115 -156l-105 -61l-80 176l-79 -176l-103 61l113 156z" />
<glyph unicode="+" horiz-adv-x="1626" d="M178 547v176h549v547h174v-547h547v-176h-547v-547h-174v547h-549z" />
<glyph unicode="," horiz-adv-x="458" d="M78 119q0 59 40 99t99 40q81 0 122.5 -65.5t41.5 -167.5q0 -92 -32.5 -181.5t-99.5 -152t-151 -62.5v107q63 0 104.5 65.5t41.5 128.5q0 52 -29 52q-57 0 -97 40t-40 97z" />
<glyph unicode="-" horiz-adv-x="1073" d="M178 455v155h717v-155h-717z" />
<glyph unicode="." horiz-adv-x="401" d="M61 119q0 57 41.5 98t98.5 41t98 -41t41 -98t-41 -98t-98 -41t-98.5 41t-41.5 98z" />
<glyph unicode="/" horiz-adv-x="1243" d="M-43 -512l1085 2048h215l-1083 -2048h-217z" />
<glyph unicode="0" horiz-adv-x="1396" d="M137 768q0 226 72 406t200 281t289 101q120 0 224 -59.5t177.5 -163t115.5 -250t42 -315.5t-42 -315.5t-115.5 -250t-177.5 -163t-224 -59.5q-161 0 -289 101t-200 281t-72 406zM367 768q0 -167 43.5 -301.5t119.5 -210.5t170 -76q141 0 235.5 167.5t94.5 420.5 t-94.5 420.5t-235.5 167.5q-94 0 -170 -76t-119.5 -210.5t-43.5 -301.5z" />
<glyph unicode="1" horiz-adv-x="860" d="M82 1018v272l328 246h208v-1536h-227v1264z" />
<glyph unicode="2" horiz-adv-x="1202" d="M92 0v162q463 482 571 605q139 158 169 240q16 43 16 97q0 122 -72 186t-178 66q-112 2 -184.5 -70t-69.5 -192l-219 2q-6 134 59 241t177 164.5t247 57.5q194 -2 324.5 -120.5t134.5 -308.5q1 -61 -7 -110t-39.5 -109.5t-68 -112t-117.5 -141.5t-161.5 -173.5 t-224.5 -231.5q-33 -33 -50 -51h711v-201h-1018z" />
<glyph unicode="3" horiz-adv-x="1234" d="M117 426l225 2q0 -98 77 -166.5t187 -68.5q114 0 190 79t76 195t-76 194t-190 78h-121l-2 183h109h2q91 0 153 63.5t62 155.5q0 87 -62 146t-153 59q-85 0 -144 -54.5t-59 -132.5l-219 4q0 165 122 279t300 114q177 0 298.5 -114t121.5 -279q0 -94 -47 -171.5 t-131 -125.5q119 -58 189.5 -164t70.5 -237q0 -203 -142.5 -344t-347.5 -141q-204 0 -346.5 130t-142.5 316z" />
<glyph unicode="4" horiz-adv-x="1269" d="M41 324v145l678 1067h285v-1012h149v-200h-149v-324h-228v324h-735zM303 524h473v781z" />
<glyph unicode="5" horiz-adv-x="1269" d="M143 195l146 157q55 -76 141 -120t180 -44q136 0 225 89.5t89 226.5q0 138 -90.5 229.5t-225.5 91.5q-74 0 -146 -30.5t-124 -85.5l-188 86l81 737h826v-201h-647l-52 -407q56 49 138 75.5t172 26.5q212 0 347.5 -144.5t135.5 -369.5q0 -236 -148 -384t-380 -148 q-142 0 -270 57.5t-210 157.5z" />
<glyph unicode="6" horiz-adv-x="1337" d="M119 496q-6 186 129 358l520 682h264l-397 -502q25 2 82 2q136 -7 250.5 -77.5t182 -185.5t71.5 -249q4 -221 -153.5 -377.5t-383.5 -164.5q-150 -4 -278.5 62.5t-205.5 186.5t-81 265zM344 496q5 -139 101.5 -232.5t236.5 -87.5t230.5 106.5t84.5 239.5q-6 140 -104 233 t-238 87q-139 -4 -228 -105t-83 -241z" />
<glyph unicode="7" horiz-adv-x="1159" d="M82 1335v201h1036v-160l-758 -1376h-251l755 1335h-782z" />
<glyph unicode="8" horiz-adv-x="1198" d="M88 453q0 130 67 236t183 165q-75 54 -117.5 134t-42.5 175q0 167 120.5 280t301.5 113q179 0 299.5 -113.5t120.5 -279.5q0 -95 -42.5 -175t-117.5 -134q116 -59 183 -165t67 -236q0 -200 -146.5 -336.5t-365.5 -136.5q-216 0 -363 136.5t-147 336.5zM317 469 q0 -120 81.5 -204.5t199.5 -84.5q119 0 201 84t82 205q0 120 -81.5 200.5t-201.5 80.5q-119 0 -200 -80.5t-81 -200.5zM371 1147q0 -97 66 -163t163 -66q95 0 161 66t66 163q0 96 -65.5 161.5t-161.5 65.5q-97 0 -163 -65t-66 -162z" />
<glyph unicode="9" horiz-adv-x="1337" d="M119 1012q-4 145 67.5 268.5t196 196t272.5 77.5q112 3 215.5 -36t179 -107.5t122 -165t49.5 -205.5q6 -185 -127 -358l-523 -682h-264l406 508q-32 -12 -90 -8q-136 7 -250.5 77.5t-182 185.5t-71.5 249zM340 1014q6 -140 104 -233t238 -87q92 3 165.5 50.5t112.5 126 t35 169.5q-6 138 -103.5 232t-236.5 88q-140 -6 -230.5 -106.5t-84.5 -239.5z" />
<glyph unicode=":" horiz-adv-x="634" d="M178 119q0 57 41 98t98 41t98.5 -41t41.5 -98t-41.5 -98t-98.5 -41t-98 41t-41 98zM178 905q0 57 41 98t98 41t98.5 -41t41.5 -98t-41.5 -98t-98.5 -41t-98 41t-41 98z" />
<glyph unicode=";" horiz-adv-x="647" d="M180 119q0 59 40 99t99 40q99 0 138 -109q38 -107 1 -250q-37 -149 -128 -222q-59 -47 -129 -48v107q66 2 109 91q33 69 27 125q-3 30 -20 30q-57 0 -97 40t-40 97zM180 905q0 57 41 98t98 41t98.5 -41t41.5 -98t-41.5 -98t-98.5 -41t-98 41t-41 98z" />
<glyph unicode="&#x3c;" horiz-adv-x="1486" d="M178 625v204l1131 568v-191l-953 -479l953 -481v-193z" />
<glyph unicode="=" horiz-adv-x="1462" d="M117 270v148h1229v-148h-1229zM117 668v147h1229v-147h-1229z" />
<glyph unicode="&#x3e;" horiz-adv-x="1486" d="M178 53v193l952 481l-952 479v191l1131 -568v-204z" />
<glyph unicode="?" horiz-adv-x="1173" d="M117 1079q-7 199 127.5 334t341.5 135q201 0 335 -126.5t134 -315.5q0 -83 -20 -146.5t-52.5 -100.5t-71 -65t-77.5 -48.5t-71.5 -42t-52.5 -54t-20 -76.5v-131h-207v113q0 81 20.5 139t53 89t72 54t79.5 42.5t72.5 44.5t53 70.5t20.5 111.5q0 106 -76 175t-192 69 q-120 0 -196 -77.5t-71 -193.5h-202zM455 119q0 57 41 98t98 41t98 -41t41 -98q0 -58 -41 -98.5t-98 -40.5t-98 40.5t-41 98.5z" />
<glyph unicode="@" horiz-adv-x="1245" d="M117 565q0 153 71 281.5t195 203t272 74.5q174 0 293 -108t119 -266v-445h-137v60q-35 -36 -89 -59t-104 -23q-108 0 -183 75t-75 183q0 107 75 181.5t181 74.5q53 0 107 -24.5t88 -63.5v41q0 98 -80 166.5t-195 68.5q-167 0 -284 -122.5t-117 -297.5 q0 -181 129.5 -304.5t316.5 -123.5h367v-137h-367q-161 0 -295 74.5t-211 204.5t-77 286zM639 541q0 -61 43.5 -101.5t108.5 -40.5q47 0 84.5 24t54.5 64v107q-18 39 -55 62.5t-84 23.5q-65 0 -108.5 -39.5t-43.5 -99.5z" />
<glyph unicode="A" d="M31 0l616 1536h264l617 -1536h-256l-117 309h-749l-119 -309h-256zM479 506h600l-299 788z" />
<glyph unicode="B" horiz-adv-x="1327" d="M143 0v1536h535q187 0 312.5 -115.5t125.5 -300.5q0 -225 -186 -329q136 -37 217.5 -134.5t81.5 -244.5q0 -185 -124 -298.5t-310 -113.5h-652zM377 207h385q96 0 163.5 68.5t67.5 164.5q0 95 -67.5 163.5t-163.5 68.5h-385v-465zM377 864h274q95 0 162.5 69t67.5 165 q0 95 -67.5 163t-162.5 68h-274v-465z" />
<glyph unicode="C" horiz-adv-x="1339" d="M100 768q0 216 95.5 396t268.5 286t386 106q218 0 393 -126v-281q-163 184 -393 184q-155 0 -276.5 -75t-186.5 -203.5t-65 -286.5t65 -286.5t186.5 -203.5t276.5 -75q234 0 393 184v-281q-175 -126 -393 -126q-213 0 -386 106t-268.5 286t-95.5 396z" />
<glyph unicode="D" horiz-adv-x="1466" d="M143 0v1536h455q209 0 385.5 -103t279.5 -279.5t103 -385.5t-103 -385.5t-279.5 -279.5t-385.5 -103h-455zM377 207h219q147 0 270 74.5t193.5 203.5t70.5 283t-70.5 283t-193.5 203.5t-270 74.5h-219v-1122z" />
<glyph unicode="E" horiz-adv-x="1110" d="M143 0v1536h875v-207h-639v-457h553v-208h-553v-457h639v-207h-875z" />
<glyph unicode="F" horiz-adv-x="1105" d="M143 0v1536h875v-207h-639v-457h553v-208h-553v-664h-236z" />
<glyph unicode="G" horiz-adv-x="1523" d="M141 760q0 179 62.5 330t169 252t249.5 157.5t302 56.5q242 0 456 -133v-297q-78 97 -197.5 152t-250.5 55q-159 0 -287.5 -66t-206.5 -198t-78 -309q0 -133 45 -243t123 -181.5t181.5 -110.5t222.5 -39q122 0 239 52v401h-315v209h524v-752q-214 -133 -450 -133 q-162 0 -306 56.5t-251 158t-169.5 252.5t-62.5 330z" />
<glyph unicode="H" horiz-adv-x="1511" d="M143 0v1536h236v-664h754v664h235v-1536h-235v664h-754v-664h-236z" />
<glyph unicode="I" horiz-adv-x="522" d="M143 0v1536h236v-1536h-236z" />
<glyph unicode="J" horiz-adv-x="782" d="M96 0v240q73 -25 148 -25q60 0 103.5 43t43.5 104v1174h236v-1174q0 -159 -112 -270.5t-271 -111.5q-90 0 -148 20z" />
<glyph unicode="K" horiz-adv-x="1351" d="M143 0v1536h236v-629l602 629h303l-666 -684l666 -627v-307l-905 862v-780h-236z" />
<glyph unicode="L" horiz-adv-x="1017" d="M143 0v1536h236v-1329h545v-207h-781z" />
<glyph unicode="M" horiz-adv-x="1884" d="M143 0v1536h252l547 -813l549 813h250v-1536h-234v1200l-567 -856l-561 856v-1200h-236z" />
<glyph unicode="N" horiz-adv-x="1622" d="M143 0v1536h234l868 -1169v1169h234v-1536h-234l-866 1169v-1169h-236z" />
<glyph unicode="O" horiz-adv-x="1699" d="M100 768q0 216 95.5 396t268.5 286t386 106q160 0 300 -62t238 -168t154.5 -251t56.5 -307t-56.5 -307t-154.5 -251t-238 -168t-300 -62q-213 0 -386 106t-268.5 286t-95.5 396zM322 768q0 -158 65.5 -286.5t187 -203.5t275.5 -75q155 0 276 75t185.5 203.5t64.5 286.5 t-64.5 286.5t-185.5 203.5t-276 75q-154 0 -275.5 -75t-187 -203.5t-65.5 -286.5z" />
<glyph unicode="P" horiz-adv-x="1230" d="M143 0v1536h592q184 0 312.5 -129.5t128.5 -312.5q0 -184 -128 -310.5t-313 -126.5h-356v-657h-236zM379 852h342q101 0 170.5 65.5t69.5 174.5q0 103 -70.5 170t-169.5 67h-342v-477z" />
<glyph unicode="Q" horiz-adv-x="1687" d="M100 768q0 216 95.5 396t268.5 286t386 106q160 0 300 -62t238 -168t154.5 -251t56.5 -307q0 -260 -139 -467l43 -45q32 -35 82 -35h57v-221h-73q-114 0 -217 106l-35 37q-200 -163 -467 -163q-213 0 -386 106t-268.5 286t-95.5 396zM322 768q0 -158 65.5 -286.5 t187 -203.5t275.5 -75q180 0 313 100l-225 238l147 149l218 -225q73 137 73 303q0 158 -64.5 286.5t-185.5 203.5t-276 75q-154 0 -275.5 -75t-187 -203.5t-65.5 -286.5z" />
<glyph unicode="R" horiz-adv-x="1241" d="M143 0v1536h592q183 0 312 -129t129 -315q0 -152 -94.5 -264t-241.5 -142l381 -686h-265l-354 672h-223v-672h-236zM379 864h350q97 0 164.5 68.5t67.5 165.5q0 96 -68 163.5t-164 67.5h-350v-465z" />
<glyph unicode="S" horiz-adv-x="1304" d="M76 279l170 170q47 -114 166 -180t268 -66q134 0 213 51t80 156q0 38 -10.5 72.5t-26.5 60t-46.5 51t-56 42.5t-69.5 37.5t-73.5 32.5t-80.5 31q-178 69 -250 112q-168 99 -189 254q-3 24 -3 50q0 124 65 216.5t175 139.5t249 47q185 0 328 -60t232 -163l-158 -157 q-119 180 -395 180q-113 0 -184.5 -48t-71.5 -137q0 -27 9.5 -51.5t23 -43.5t39.5 -39.5t47.5 -34t60.5 -31.5t64 -28.5t71 -29.5l2 -1q187 -75 270 -128q196 -124 213 -321q2 -20 2 -41q0 -112 -41 -198t-114.5 -138.5t-170 -79t-212.5 -26.5q-185 0 -346 82t-250 217z" />
<glyph unicode="T" horiz-adv-x="1202" d="M76 1329v207h1052v-207h-409v-1329h-234v1329h-409z" />
<glyph unicode="U" horiz-adv-x="1515" d="M156 500v1036h235v-995q0 -148 106.5 -251.5t260.5 -103.5q153 0 259.5 103.5t106.5 251.5v995h236v-1036q0 -143 -80 -262.5t-218.5 -188.5t-303.5 -69t-303.5 69t-218.5 188.5t-80 262.5z" />
<glyph unicode="V" d="M31 1536h264l485 -1264l484 1264h264l-617 -1536h-264z" />
<glyph unicode="W" horiz-adv-x="2295" d="M-20 1536h253l533 -1257l264 624l-266 633h242l526 -1260l530 1260h254l-649 -1536h-256l-264 625l-262 -625h-254z" />
<glyph unicode="X" horiz-adv-x="1372" d="M31 0l526 784l-506 752h268l365 -559l367 559h268l-508 -752l528 -784h-270l-385 592l-383 -592h-270z" />
<glyph unicode="Y" horiz-adv-x="1372" d="M31 1536h264l391 -610l393 610h260l-534 -807v-729h-236v723z" />
<glyph unicode="Z" horiz-adv-x="1347" d="M88 0v125l832 1204h-809v207h1128v-125l-831 -1204h847v-207h-1167z" />
<glyph unicode="[" horiz-adv-x="575" d="M154 -723v2470h462v-170h-264v-2130h264v-170h-462z" />
<glyph unicode="\" horiz-adv-x="1243" d="M-43 1536h217l1083 -2048h-215z" />
<glyph unicode="]" horiz-adv-x="575" d="M154 -553h264v2130h-264v170h462v-2470h-462v170z" />
<glyph unicode="^" horiz-adv-x="1456" d="M55 406l570 1130h204l570 -1130h-193l-479 952l-479 -952h-193z" />
<glyph unicode="_" horiz-adv-x="1380" d="M178 0h1024v-154h-1024v154z" />
<glyph unicode="`" horiz-adv-x="94" d="M55 1536h232l178 -328h-176z" />
<glyph unicode="a" horiz-adv-x="1103" d="M92 293q0 71 28.5 130.5t85 103.5t152.5 61q48 8 103 8t117 -8l170 -23v92q0 97 -64 146t-162 49q-79 0 -137.5 -29.5t-108.5 -93.5l-155 141q141 174 411 174q124 0 221.5 -43t157.5 -135.5t60 -222.5v-643h-201l-10 127q-80 -68 -171.5 -107.5t-180.5 -39.5 q-137 0 -226.5 88.5t-89.5 224.5zM324 305q0 -57 37.5 -91t99.5 -34q133 0 287 127v92l-136 21q-62 9 -110 9q-178 0 -178 -124z" />
<glyph unicode="b" horiz-adv-x="1212" d="M143 0v1536h224v-616q121 124 299 124q213 0 341 -151t128 -381t-128 -381t-341 -151q-188 0 -310 135l-10 -115h-203zM367 393q31 -95 102 -154t160 -59q130 0 207 95t77 237t-77 237t-207 95q-89 0 -160 -59t-102 -154v-238z" />
<glyph unicode="c" horiz-adv-x="888" d="M78 512q0 237 129.5 384.5t355.5 147.5q154 0 254 -71v-225q-41 47 -102 75.5t-127 28.5q-134 0 -210.5 -94.5t-76.5 -245.5t76.5 -246.5t210.5 -95.5q67 0 128 29t101 75v-223q-97 -71 -254 -71q-226 0 -355.5 147.5t-129.5 384.5z" />
<glyph unicode="d" horiz-adv-x="1212" d="M78 512q0 230 128 381t341 151q181 0 301 -126v618h221v-1536h-201l-12 115q-122 -135 -309 -135q-213 0 -341 151t-128 381zM301 512q0 -143 76.5 -237.5t206.5 -94.5q89 0 161 59t103 154v238q-31 95 -103 154t-161 59q-130 0 -206.5 -94.5t-76.5 -237.5z" />
<glyph unicode="e" horiz-adv-x="1107" d="M78 510q0 235 132.5 384.5t358.5 149.5q218 0 339.5 -148.5t121.5 -391.5q0 -44 -4 -64h-725q14 -126 84 -195t193 -69q87 0 143.5 35t118.5 131l157 -111q-64 -121 -172 -186t-256 -65q-228 0 -359.5 147t-131.5 383zM307 614h518q-15 112 -79.5 174t-172.5 62 q-111 0 -178 -62t-88 -174z" />
<glyph unicode="f" horiz-adv-x="792" d="M76 850v174h172v203q0 138 100.5 233.5t243.5 95.5q71 0 132.5 -21.5t119.5 -88.5l-127 -139q-45 61 -121 61q-53 0 -87 -44.5t-34 -111.5v-188h260v-174h-260v-850h-227v850h-172z" />
<glyph unicode="g" horiz-adv-x="1214" d="M78 512q0 230 128 381t341 151q187 0 311 -137l10 117h203v-1016q0 -230 -129 -375t-354 -145q-175 0 -312 80v244q144 -123 326 -123q115 0 180.5 83t65.5 236v98q-120 -126 -301 -126q-213 0 -341 151t-128 381zM301 512q0 -143 76.5 -237.5t206.5 -94.5q89 0 161 59 t103 154v238q-31 95 -103 154t-161 59q-130 0 -206.5 -94.5t-76.5 -237.5z" />
<glyph unicode="h" horiz-adv-x="1218" d="M143 0v1536h228v-625q127 133 315 133q174 0 286.5 -110.5t112.5 -286.5v-647h-229v621q0 97 -67 160t-168 63q-104 0 -177 -69t-73 -167v-608h-228z" />
<glyph unicode="i" horiz-adv-x="581" d="M152 1346q0 58 41 98.5t98 40.5t98 -40.5t41 -98.5q0 -57 -41 -97.5t-98 -40.5t-98 40.5t-41 97.5zM176 0v1024h227v-1024h-227z" />
<glyph unicode="j" horiz-adv-x="552" d="M-57 -305q21 -17 53 -28t59 -11q60 0 102 45t42 111v1212h227v-1227q0 -138 -99.5 -233.5t-244.5 -95.5q-38 0 -78.5 9.5t-60.5 22.5v195zM172 1346q0 58 41 98.5t98 40.5t98.5 -40.5t41.5 -98.5q0 -57 -41.5 -97.5t-98.5 -40.5t-98 40.5t-41 97.5z" />
<glyph unicode="k" horiz-adv-x="1095" d="M143 0v1536h228v-895l407 383h285l-479 -451l473 -415v-275l-686 609v-492h-228z" />
<glyph unicode="l" horiz-adv-x="712" d="M154 328v1208h227l2 -1208q0 -77 34.5 -115.5t98.5 -38.5q69 0 113 49l125 -153q-87 -90 -244 -90q-163 0 -259.5 95.5t-96.5 252.5z" />
<glyph unicode="m" horiz-adv-x="1849" d="M143 0v1024h207l10 -111q121 131 304 131q105 0 188 -44.5t133 -125.5q60 79 150.5 124.5t197.5 45.5q170 0 276.5 -108.5t106.5 -280.5v-655h-229v629q0 92 -60.5 153.5t-152.5 61.5q-98 0 -164 -67t-66 -163v-614h-229v629q0 92 -60.5 153.5t-152.5 61.5 q-96 0 -163.5 -67t-67.5 -163v-614h-228z" />
<glyph unicode="n" horiz-adv-x="1218" d="M143 0v1024h207l12 -121q125 141 324 141q174 0 286.5 -110.5t112.5 -286.5v-647h-229v621q0 97 -67 160t-168 63q-104 0 -177 -69t-73 -167v-608h-228z" />
<glyph unicode="o" horiz-adv-x="1167" d="M78 512q0 148 62.5 269t179 192t264.5 71t264.5 -71t179 -192t62.5 -269t-62.5 -269t-179 -192t-264.5 -71t-264.5 71t-179 192t-62.5 269zM301 512q0 -143 76.5 -237.5t206.5 -94.5q129 0 205.5 95t76.5 237t-76.5 237t-205.5 95q-130 0 -206.5 -94.5t-76.5 -237.5z" />
<glyph unicode="p" horiz-adv-x="1212" d="M143 -512v1536h224v-104q121 124 299 124q213 0 341 -151t128 -381t-128 -381t-341 -151q-178 0 -299 124v-616h-224zM367 393q31 -95 102 -154t160 -59q130 0 207 95t77 237t-77 237t-207 95q-89 0 -160 -59t-102 -154v-238z" />
<glyph unicode="q" horiz-adv-x="1212" d="M78 512q0 230 128 381t341 151q181 0 301 -126v106h221v-1536h-221v618q-120 -126 -301 -126q-213 0 -341 151t-128 381zM301 512q0 -143 76.5 -237.5t206.5 -94.5q89 0 161 59t103 154v238q-31 95 -103 154t-161 59q-130 0 -206.5 -94.5t-76.5 -237.5z" />
<glyph unicode="r" horiz-adv-x="860" d="M143 0v1024h207l12 -143q57 76 132.5 119.5t158.5 43.5q92 0 147 -17.5t101 -57.5l-108 -162q-62 37 -152 37q-108 0 -189 -83.5t-81 -211.5v-549h-228z" />
<glyph unicode="s" horiz-adv-x="983" d="M72 125l112 158q40 -48 129 -82t174 -37h15q76 0 126 28q54 32 54 87q0 24 -12.5 45t-29.5 35t-49.5 29t-57 23.5t-68.5 22.5q-149 48 -209 82q-134 79 -135 215q0 135 113 224t278 89q100 0 203.5 -31t173.5 -81l-123 -158q-39 35 -98 59.5t-115 30.5q-16 2 -32 2 q-57 0 -106 -23q-63 -29 -63 -83q0 -20 7 -37t26.5 -32t33.5 -24.5t49 -22t51 -17.5t59 -19q43 -13 68.5 -21.5t65 -24.5t64 -31t53 -38.5t44.5 -49.5t27 -62t11 -78q0 -141 -116 -232t-295 -91q-121 0 -242 41t-186 104z" />
<glyph unicode="t" horiz-adv-x="770" d="M45 850v174h125v348h227v-348h291v-174h-289v-522q0 -77 34.5 -115.5t98.5 -38.5q69 0 113 49l125 -153q-87 -90 -244 -90q-163 0 -259.5 95.5t-96.5 252.5v522h-125z" />
<glyph unicode="u" horiz-adv-x="1232" d="M147 389v635h228v-608q0 -99 69 -167.5t170 -68.5q102 0 175 69t73 167v608h228v-1024h-207l-13 123q-58 -67 -139.5 -105t-175.5 -38q-172 0 -290 119t-118 290z" />
<glyph unicode="v" horiz-adv-x="1058" d="M10 1024h244l276 -754l275 754h244l-412 -1024h-217z" />
<glyph unicode="w" horiz-adv-x="1499" d="M10 1024h258l232 -752l143 439l-111 313h222l247 -756l234 756h254l-350 -1024h-246l-148 416l-139 -416h-244z" />
<glyph unicode="x" horiz-adv-x="1091" d="M-20 0l428 512l-428 512h272l293 -348l293 348h274l-428 -514l428 -510h-276l-289 346l-291 -346h-276z" />
<glyph unicode="y" horiz-adv-x="1234" d="M147 389v635h228v-608q0 -99 69 -167.5t170 -68.5q102 0 175 69t73 167v608h228l2 -1024q0 -151 -60.5 -267.5t-181.5 -184.5t-287 -68q-204 0 -354 80v243q157 -122 373 -122q134 0 207 82.5t73 236.5v113q-127 -133 -307 -133q-172 0 -290 119t-118 290z" />
<glyph unicode="z" horiz-adv-x="1110" d="M111 0v164l583 672h-575v188h870v-160l-586 -676h596v-188h-888z" />
<glyph unicode="{" horiz-adv-x="696" d="M96 438v144q98 46 126 108.5t28 216.5v496q0 125 66 210t165 85h113v-156q-53 0 -81.5 -4.5t-50 -20.5t-29 -44.5t-7.5 -79.5v-516q0 -130 -27 -217.5t-102 -149.5q75 -62 102 -149.5t27 -217.5v-526q0 -77 34 -107t134 -30v-168h-113q-99 0 -165 85t-66 210v506 q0 154 -28.5 217t-125.5 108z" />
<glyph unicode="|" horiz-adv-x="602" d="M227 -307v1843h146v-1843h-146z" />
<glyph unicode="}" horiz-adv-x="696" d="M102 -520q100 0 134 30t34 107v526q0 130 27 217.5t102 149.5q-75 62 -102 149.5t-27 217.5v516q0 51 -7.5 79.5t-29 44.5t-50 20.5t-81.5 4.5v166h115q98 0 163.5 -85t65.5 -210v-506q0 -153 28.5 -216t125.5 -109v-144q-98 -45 -126 -107t-28 -218v-506 q0 -125 -65.5 -210t-163.5 -85h-115v168z" />
<glyph unicode="~" horiz-adv-x="1148" d="M82 379q-13 151 68.5 248.5t216.5 97.5q78 0 138 -37.5t120 -112.5q39 -50 73.5 -75t83.5 -25q77 0 124.5 62t37.5 161h121q17 -145 -63 -243.5t-209 -98.5q-48 0 -90 13.5t-79 43t-53.5 45.5t-48.5 52q-41 48 -76 71t-79 23q-79 0 -125.5 -65t-38.5 -160h-121z" />
<glyph unicode="&#xa1;" horiz-adv-x="634" d="M178 885q0 57 41 98t98 41t98.5 -41t41.5 -98q0 -58 -41.5 -99t-98.5 -41t-98 41t-41 99zM203 -512l26 1061h174l27 -1061h-227z" />
<glyph unicode="&#xa2;" horiz-adv-x="1050" d="M100 717q0 193 125.5 338t319.5 184v197h137v-187q123 -6 231 -63v-223q-96 86 -254 86q-138 0 -234.5 -97t-96.5 -235t96.5 -235t234.5 -97q158 0 254 86v-223q-107 -58 -231 -64v-186h-137v197q-194 39 -319.5 184t-125.5 338z" />
<glyph unicode="&#xa3;" horiz-adv-x="1267" d="M68 674v151h163v244q0 214 133.5 350.5t342.5 136.5q155 0 284.5 -99t167.5 -249l-168 -73q-12 104 -95.5 174.5t-188.5 70.5q-136 0 -218.5 -85t-82.5 -226v-244h380v-151h-380v-512h778v-162h-953v674h-163z" />
<glyph unicode="&#xa4;" horiz-adv-x="1271" d="M143 377l107 104q-83 118 -82.5 262.5t82.5 262.5l-105 102l123 129l107 -109q118 84 262 84t262 -84l107 107l122 -123l-104 -104q83 -118 83 -264t-83 -265l104 -102l-120 -129l-109 108q-117 -83 -263 -83t-263 83l-107 -108zM340 742q-1 -122 84 -207 q90 -88 212 -88.5t210 88.5q86 86 86 208.5t-86 208.5q-88 86 -210 86t-210 -88q-85 -86 -86 -208z" />
<glyph unicode="&#xa5;" horiz-adv-x="1400" d="M76 1536h215l409 -635l410 635h213l-522 -791h393v-147h-393v-180h393v-137h-393v-281h-201v281h-389v137h389v180h-389v147h389z" />
<glyph unicode="&#xa6;" horiz-adv-x="602" d="M227 -307v737h146v-737h-146zM227 799v737h146v-737h-146z" />
<glyph unicode="&#xa7;" horiz-adv-x="1286" d="M129 244l143 86q40 -74 143.5 -121t246.5 -47q139 0 235 46.5t96 129.5q0 51 -44 87.5t-114 59.5t-155 43.5t-170 47t-155 61.5t-114 95.5t-44 141.5q0 111 82 187q-80 73 -80 178q0 100 66 174t166 108.5t216 34.5q126 0 241 -41.5t185 -109.5l-117 -96q-50 46 -129 73 t-170 27q-119 0 -203.5 -43.5t-84.5 -118.5q0 -51 44 -87.5t114 -59.5t155 -43.5t170 -47.5t155 -62.5t114 -97.5t44 -144q0 -103 -82 -185q80 -77 80 -184q0 -97 -71.5 -173.5t-187.5 -117.5t-251 -41q-176 0 -319 68t-205 172zM369 881q0 -48 35.5 -83t100.5 -59t133 -42 t156.5 -43t147.5 -50q51 42 51 103q0 47 -35.5 81.5t-100.5 57.5t-133 40.5t-157 42t-149 48.5q-49 -40 -49 -96z" />
<glyph unicode="&#xa8;" horiz-adv-x="94" d="M121 1346q0 58 41 98.5t98 40.5t98 -40.5t41 -98.5q0 -57 -41 -97.5t-98 -40.5t-98 40.5t-41 97.5zM530 1346q0 58 41.5 98.5t98.5 40.5t97 -40.5t40 -98.5q0 -57 -40 -97.5t-97 -40.5t-98.5 40.5t-41.5 97.5z" />
<glyph unicode="&#xa9;" horiz-adv-x="1777" d="M100 768q0 128 40 248t113 217t170 170t217.5 113t248.5 40q160 0 306 -62.5t251.5 -168t168 -251.5t62.5 -306t-62.5 -306t-168 -251.5t-251.5 -168t-306 -62.5q-128 0 -248.5 40t-217.5 113t-170 170t-113 217t-40 248zM227 768q0 -182 88 -334t240 -240t334 -88 q137 0 260 52t211 140.5t140 211t52 258.5t-52 258.5t-140 211t-211 140.5t-260 52q-182 0 -334 -88t-240 -240t-88 -334zM514 760q0 164 119.5 278.5t290.5 114.5q108 0 194 -51v-144l-8 -2q-35 29 -84 46.5t-96 17.5q-112 0 -189 -71.5t-77 -188.5q0 -114 77 -186t189 -72 q47 0 96 16t82 43h10v-141q-88 -51 -194 -51q-170 0 -290 114t-120 277z" />
<glyph unicode="&#xaa;" horiz-adv-x="843" d="M66 1229q0 132 90.5 225.5t218.5 93.5q76 0 139 -35.5t102 -97.5v121h115v-614h-115v118q-39 -61 -101.5 -96t-139.5 -35q-128 0 -218.5 93.5t-90.5 226.5zM180 1229q0 -91 63 -155t154 -64t155 64t64 155q0 89 -64 153t-155 64q-90 0 -153.5 -63.5t-63.5 -153.5z" />
<glyph unicode="&#xab;" horiz-adv-x="1359" d="M221 571l311 377h187l-311 -377l311 -376h-187zM641 571l311 377h189l-312 -377l312 -376h-189z" />
<glyph unicode="&#xac;" horiz-adv-x="1615" d="M178 750v147h1260v-672h-148v525h-1112z" />
<glyph unicode="&#xad;" horiz-adv-x="1228" d="M178 455v155h717v-155h-717z" />
<glyph unicode="&#xae;" horiz-adv-x="1777" d="M100 768q0 128 40 248t113 217t170 170t217.5 113t248.5 40q160 0 306 -62.5t251.5 -168t168 -251.5t62.5 -306t-62.5 -306t-168 -251.5t-251.5 -168t-306 -62.5q-128 0 -248.5 40t-217.5 113t-170 170t-113 217t-40 248zM227 768q0 -182 88 -334t240 -240t334 -88 q137 0 260 52t211 140.5t140 211t52 258.5t-52 258.5t-140 211t-211 140.5t-260 52q-182 0 -334 -88t-240 -240t-88 -334zM676 371v794h264q98 0 167 -67t69 -164q0 -72 -41 -131t-107 -86l189 -346h-132l-184 329h-108v-329h-117zM793 817h147q50 0 83.5 33.5t33.5 83.5 q0 48 -34 81.5t-83 33.5h-147v-232z" />
<glyph unicode="&#xaf;" horiz-adv-x="110" d="M55 1217v147h635v-147h-635z" />
<glyph unicode="&#xb0;" horiz-adv-x="987" d="M219 1282q0 114 80.5 194t194.5 80t194 -80t80 -194t-80 -194t-194 -80t-194.5 80t-80.5 194zM334 1282q0 -68 46 -114t114 -46q67 0 113 46t46 114t-46 114t-113 46q-68 0 -114 -46t-46 -114z" />
<glyph unicode="&#xb1;" horiz-adv-x="1611" d="M96 0v135h1420v-135h-1420zM96 752v147h637v369h148v-369h635v-147h-635v-369h-148v369h-637z" />
<glyph unicode="&#xb2;" horiz-adv-x="694" d="M92 778v82q264 274 320.5 344t56.5 125q0 61 -35.5 93t-89.5 34q-57 0 -92.5 -35.5t-34.5 -95.5h-111q-3 102 68.5 166.5t175.5 64.5q97 0 162 -58t68 -152q1 -47 -10 -82.5t-52 -89.5t-94 -110.5t-162 -168.5l-16 -16h356v-101h-510z" />
<glyph unicode="&#xb3;" horiz-adv-x="745" d="M117 991l112 2q0 -50 39 -84.5t94 -34.5t93.5 40.5t38.5 97.5q0 58 -38 96.5t-94 38.5h-61v92h53q46 0 76.5 32t30.5 79q0 43 -30.5 71.5t-76.5 28.5q-41 0 -70.5 -27t-29.5 -65l-111 2q0 83 61.5 139.5t149.5 56.5t149.5 -56.5t61.5 -139.5q0 -98 -88 -148 q60 -30 94.5 -82t34.5 -118q0 -102 -71 -173t-173 -71q-103 0 -174 64.5t-71 158.5z" />
<glyph unicode="&#xb4;" horiz-adv-x="94" d="M55 1208l178 328h232l-232 -328h-178z" />
<glyph unicode="&#xb5;" horiz-adv-x="1228" d="M158 -512v1536h227v-608q0 -98 70 -167t168 -69q104 0 176.5 69t72.5 167v608h228v-1024h-228v135q-58 -73 -139.5 -114t-173.5 -41q-128 0 -231 73v-565h-170z" />
<glyph unicode="&#xb6;" horiz-adv-x="1288" d="M199 1194q0 165 96.5 253.5t267.5 88.5h172v-1843h-119v1157h-53q-171 0 -267.5 89.5t-96.5 254.5zM928 -307v1843h121v-1843h-121z" />
<glyph unicode="&#xb7;" horiz-adv-x="571" d="M178 737q0 43 32 75t75 32t75.5 -32t32.5 -75q0 -45 -32 -75.5t-76 -30.5t-75.5 30.5t-31.5 75.5z" />
<glyph unicode="&#xb8;" horiz-adv-x="94" d="M55 -393l103 39q20 -29 59 -49.5t76 -20.5q44 0 74 31t30 76q0 66 -55.5 89.5t-134.5 -10.5l-88 56l96 182h111l-68 -131q104 20 177 -34.5t73 -151.5q0 -90 -62.5 -152.5t-152.5 -62.5q-72 0 -141 40.5t-97 98.5z" />
<glyph unicode="&#xb9;" horiz-adv-x="550" d="M82 1436v100h227v-768h-114v668h-113z" />
<glyph unicode="&#xba;" horiz-adv-x="796" d="M66 1229q0 132 96.5 225.5t234.5 93.5q139 0 236.5 -93.5t97.5 -225.5q0 -134 -97.5 -227t-236.5 -93q-138 0 -234.5 93.5t-96.5 226.5zM180 1229q0 -91 63 -155t154 -64t155 64t64 155q0 89 -64 153t-155 64q-90 0 -153.5 -63.5t-63.5 -153.5z" />
<glyph unicode="&#xbb;" horiz-adv-x="1359" d="M219 195l311 376l-311 377h187l311 -377l-311 -376h-187zM639 195l311 376l-311 377h188l312 -377l-312 -376h-188z" />
<glyph unicode="&#xbf;" horiz-adv-x="1163" d="M113 -68q0 83 20 146.5t52 100.5t71 65t78 48.5t71 42t52 54t20 76.5v131h207v-113q0 -81 -20.5 -139t-53 -89t-72 -54t-79.5 -42.5t-72.5 -44.5t-53 -70.5t-20.5 -111.5q0 -105 76.5 -174t192.5 -69q120 0 195.5 77t70.5 193h203q7 -200 -127.5 -334.5t-341.5 -134.5 q-201 0 -335 126.5t-134 315.5zM434 920q0 58 41 98.5t98 40.5t98.5 -40.5t41.5 -98.5q0 -57 -41.5 -98.5t-98.5 -41.5t-98 41.5t-41 98.5z" />
<glyph unicode="&#xc0;" d="M31 0l616 1536h264l617 -1536h-256l-117 309h-749l-119 -309h-256zM449 2048h231l178 -328h-176zM479 506h600l-299 788z" />
<glyph unicode="&#xc1;" d="M31 0l616 1536h264l617 -1536h-256l-117 309h-749l-119 -309h-256zM479 506h600l-299 788zM694 1720l178 328h232l-232 -328h-178z" />
<glyph unicode="&#xc2;" d="M31 0l616 1536h264l617 -1536h-256l-117 309h-749l-119 -309h-256zM449 1698l210 350h240l213 -350h-180l-152 246l-153 -246h-178zM479 506h600l-299 788z" />
<glyph unicode="&#xc3;" d="M31 0l616 1536h264l617 -1536h-256l-117 309h-749l-119 -309h-256zM442 1714q-21 122 37 202.5t160 80.5q123 0 199 -115q29 -51 77 -51q43 0 61 40.5t3 106.5h137q23 -121 -33.5 -201.5t-162.5 -80.5q-121 0 -197 114q-34 52 -78 52q-43 0 -61.5 -42t-1.5 -106h-140z M479 506h600l-299 788z" />
<glyph unicode="&#xc4;" d="M31 0l616 1536h264l617 -1536h-256l-117 309h-749l-119 -309h-256zM436 1858q0 58 41 98.5t98 40.5t98.5 -40.5t41.5 -98.5q0 -57 -41.5 -97.5t-98.5 -40.5t-98 40.5t-41 97.5zM479 506h600l-299 788zM846 1858q0 58 41 98.5t98 40.5t97 -40.5t40 -98.5q0 -57 -40 -97.5 t-97 -40.5t-98 40.5t-41 97.5z" />
<glyph unicode="&#xc5;" d="M31 0l602 1499q-74 67 -74 164q0 91 65.5 156t157.5 65q91 0 155 -65t64 -156q0 -99 -73 -166l600 -1497h-256l-117 309h-749l-119 -309h-256zM479 506h600l-299 788zM662 1663q0 -54 34.5 -88.5t85.5 -34.5q52 0 86.5 35t34.5 88q0 51 -35 88t-86 37t-85.5 -37 t-34.5 -88z" />
<glyph unicode="&#xc6;" horiz-adv-x="1873" d="M31 0l616 1536h1135v-201h-643v-477h557v-180h-557v-477h643v-201h-873v330h-495l-119 -330h-264zM492 510h419v825h-100z" />
<glyph unicode="&#xc7;" horiz-adv-x="1339" d="M100 768q0 216 95.5 396t268.5 286t386 106q218 0 393 -126v-281q-163 184 -393 184q-155 0 -276.5 -75t-186.5 -203.5t-65 -286.5t65 -286.5t186.5 -203.5t276.5 -75q234 0 393 184v-281q-152 -112 -348 -124l-57 -113q104 20 176.5 -34.5t72.5 -151.5 q0 -90 -62.5 -152.5t-152.5 -62.5q-72 0 -140.5 40t-96.5 99l102 39q20 -29 59 -49.5t76 -20.5q44 0 74.5 31.5t30.5 75.5q0 66 -55.5 89.5t-135.5 -10.5l-88 56l86 164q-148 12 -275.5 78.5t-217 171t-140.5 244t-51 292.5z" />
<glyph unicode="&#xc8;" horiz-adv-x="1110" d="M143 0v1536h875v-207h-639v-457h553v-208h-553v-457h639v-207h-875zM248 2048h231l178 -328h-176z" />
<glyph unicode="&#xc9;" horiz-adv-x="1110" d="M143 0v1536h875v-207h-639v-457h553v-208h-553v-457h639v-207h-875zM494 1720l178 328h231l-231 -328h-178z" />
<glyph unicode="&#xca;" horiz-adv-x="1110" d="M143 0v1536h875v-207h-639v-457h553v-208h-553v-457h639v-207h-875zM248 1698l211 350h239l213 -350h-180l-151 246l-154 -246h-178z" />
<glyph unicode="&#xcb;" horiz-adv-x="1110" d="M143 0v1536h875v-207h-639v-457h553v-208h-553v-457h639v-207h-875zM236 1858q0 58 41 98.5t98 40.5t98 -40.5t41 -98.5q0 -57 -41 -97.5t-98 -40.5t-98 40.5t-41 97.5zM645 1858q0 58 41 98.5t98 40.5t97.5 -40.5t40.5 -98.5q0 -57 -40.5 -97.5t-97.5 -40.5t-98 40.5 t-41 97.5z" />
<glyph unicode="&#xcc;" horiz-adv-x="522" d="M-72 2048h232l178 -328h-176zM143 0v1536h236v-1536h-236z" />
<glyph unicode="&#xcd;" horiz-adv-x="522" d="M143 0v1536h236v-1536h-236zM174 1720l178 328h232l-232 -328h-178z" />
<glyph unicode="&#xce;" horiz-adv-x="522" d="M-72 1698l211 350h240l213 -350h-180l-152 246l-154 -246h-178zM143 0v1536h236v-1536h-236z" />
<glyph unicode="&#xcf;" horiz-adv-x="522" d="M-84 1858q0 58 41 98.5t98 40.5t98.5 -40.5t41.5 -98.5q0 -57 -41.5 -97.5t-98.5 -40.5t-98 40.5t-41 97.5zM143 0v1536h236v-1536h-236zM326 1858q0 58 41 98.5t98 40.5t97 -40.5t40 -98.5q0 -57 -40 -97.5t-97 -40.5t-98 40.5t-41 97.5z" />
<glyph unicode="&#xd0;" horiz-adv-x="1466" d="M-10 688v160h153v688h455q209 0 385.5 -103t279.5 -279.5t103 -385.5t-103 -385.5t-279.5 -279.5t-385.5 -103h-455v688h-153zM377 207h219q147 0 270 74.5t193.5 203.5t70.5 283t-70.5 283t-193.5 203.5t-270 74.5h-219v-481h258v-160h-258v-481z" />
<glyph unicode="&#xd1;" horiz-adv-x="1622" d="M143 0v1536h234l868 -1169v1169h234v-1536h-234l-866 1169v-1169h-236zM473 1714q-21 122 37 202.5t160 80.5q122 0 198 -115q29 -51 78 -51q43 0 61 40.5t3 106.5h137q23 -121 -34 -201.5t-163 -80.5q-120 0 -196 114q-34 52 -78 52q-43 0 -62 -42t-2 -106h-139z" />
<glyph unicode="&#xd2;" horiz-adv-x="1699" d="M100 768q0 216 95.5 396t268.5 286t386 106q160 0 300 -62t238 -168t154.5 -251t56.5 -307t-56.5 -307t-154.5 -251t-238 -168t-300 -62q-213 0 -386 106t-268.5 286t-95.5 396zM322 768q0 -158 65.5 -286.5t187 -203.5t275.5 -75q155 0 276 75t185.5 203.5t64.5 286.5 t-64.5 286.5t-185.5 203.5t-276 75q-154 0 -275.5 -75t-187 -203.5t-65.5 -286.5zM518 2048h232l178 -328h-176z" />
<glyph unicode="&#xd3;" horiz-adv-x="1699" d="M100 768q0 216 95.5 396t268.5 286t386 106q160 0 300 -62t238 -168t154.5 -251t56.5 -307t-56.5 -307t-154.5 -251t-238 -168t-300 -62q-213 0 -386 106t-268.5 286t-95.5 396zM322 768q0 -158 65.5 -286.5t187 -203.5t275.5 -75q155 0 276 75t185.5 203.5t64.5 286.5 t-64.5 286.5t-185.5 203.5t-276 75q-154 0 -275.5 -75t-187 -203.5t-65.5 -286.5zM764 1720l178 328h232l-232 -328h-178z" />
<glyph unicode="&#xd4;" horiz-adv-x="1699" d="M100 768q0 216 95.5 396t268.5 286t386 106q160 0 300 -62t238 -168t154.5 -251t56.5 -307t-56.5 -307t-154.5 -251t-238 -168t-300 -62q-213 0 -386 106t-268.5 286t-95.5 396zM322 768q0 -158 65.5 -286.5t187 -203.5t275.5 -75q155 0 276 75t185.5 203.5t64.5 286.5 t-64.5 286.5t-185.5 203.5t-276 75q-154 0 -275.5 -75t-187 -203.5t-65.5 -286.5zM518 1698l211 350h240l213 -350h-181l-151 246l-154 -246h-178z" />
<glyph unicode="&#xd5;" horiz-adv-x="1699" d="M100 768q0 216 95.5 396t268.5 286t386 106q160 0 300 -62t238 -168t154.5 -251t56.5 -307t-56.5 -307t-154.5 -251t-238 -168t-300 -62q-213 0 -386 106t-268.5 286t-95.5 396zM322 768q0 -158 65.5 -286.5t187 -203.5t275.5 -75q155 0 276 75t185.5 203.5t64.5 286.5 t-64.5 286.5t-185.5 203.5t-276 75q-154 0 -275.5 -75t-187 -203.5t-65.5 -286.5zM512 1714q-21 122 37 202.5t160 80.5q122 0 198 -115q29 -51 78 -51q43 0 61 40.5t3 106.5h137q23 -121 -34 -201.5t-163 -80.5q-120 0 -196 114q-34 52 -78 52q-43 0 -62 -42t-2 -106h-139z " />
<glyph unicode="&#xd6;" horiz-adv-x="1699" d="M100 768q0 216 95.5 396t268.5 286t386 106q160 0 300 -62t238 -168t154.5 -251t56.5 -307t-56.5 -307t-154.5 -251t-238 -168t-300 -62q-213 0 -386 106t-268.5 286t-95.5 396zM322 768q0 -158 65.5 -286.5t187 -203.5t275.5 -75q155 0 276 75t185.5 203.5t64.5 286.5 t-64.5 286.5t-185.5 203.5t-276 75q-154 0 -275.5 -75t-187 -203.5t-65.5 -286.5zM506 1858q0 58 41 98.5t98 40.5t98 -40.5t41 -98.5q0 -57 -41 -97.5t-98 -40.5t-98 40.5t-41 97.5zM915 1858q0 58 41.5 98.5t98.5 40.5t97 -40.5t40 -98.5q0 -57 -40 -97.5t-97 -40.5 t-98.5 40.5t-41.5 97.5z" />
<glyph unicode="&#xd7;" horiz-adv-x="1517" d="M276 248l388 387l-388 387l123 123l389 -387l388 387l122 -123l-387 -387l387 -387l-122 -123l-388 387l-389 -387z" />
<glyph unicode="&#xd8;" horiz-adv-x="1699" d="M100 768q0 216 95.5 396t268.5 286t386 106q207 0 379 -102l82 125h157l-133 -201q125 -110 194.5 -269t69.5 -341q0 -162 -56.5 -307t-154.5 -251t-238 -168t-300 -62q-204 0 -377 100l-84 -125h-158l136 203q-126 108 -196.5 267.5t-70.5 342.5zM322 768 q0 -127 43.5 -237t123.5 -187l617 926q-114 63 -256 63q-154 0 -275.5 -75t-187 -203.5t-65.5 -286.5zM596 266q114 -63 254 -63q155 0 276 75t185.5 203.5t64.5 286.5q0 127 -43 237t-123 187z" />
<glyph unicode="&#xd9;" horiz-adv-x="1515" d="M156 500v1036h235v-995q0 -148 106.5 -251.5t260.5 -103.5q153 0 259.5 103.5t106.5 251.5v995h236v-1036q0 -143 -80 -262.5t-218.5 -188.5t-303.5 -69t-303.5 69t-218.5 188.5t-80 262.5zM426 2048h231l179 -328h-177z" />
<glyph unicode="&#xda;" horiz-adv-x="1515" d="M156 500v1036h235v-995q0 -148 106.5 -251.5t260.5 -103.5q153 0 259.5 103.5t106.5 251.5v995h236v-1036q0 -143 -80 -262.5t-218.5 -188.5t-303.5 -69t-303.5 69t-218.5 188.5t-80 262.5zM672 1720l178 328h231l-231 -328h-178z" />
<glyph unicode="&#xdb;" horiz-adv-x="1515" d="M156 500v1036h235v-995q0 -148 106.5 -251.5t260.5 -103.5q153 0 259.5 103.5t106.5 251.5v995h236v-1036q0 -143 -80 -262.5t-218.5 -188.5t-303.5 -69t-303.5 69t-218.5 188.5t-80 262.5zM426 1698l211 350h240l213 -350h-181l-151 246l-154 -246h-178z" />
<glyph unicode="&#xdc;" horiz-adv-x="1515" d="M156 500v1036h235v-995q0 -148 106.5 -251.5t260.5 -103.5q153 0 259.5 103.5t106.5 251.5v995h236v-1036q0 -143 -80 -262.5t-218.5 -188.5t-303.5 -69t-303.5 69t-218.5 188.5t-80 262.5zM414 1858q0 58 41 98.5t98 40.5t98 -40.5t41 -98.5q0 -57 -41 -97.5t-98 -40.5 t-98 40.5t-41 97.5zM823 1858q0 58 41.5 98.5t98.5 40.5t97 -40.5t40 -98.5q0 -57 -40 -97.5t-97 -40.5t-98.5 40.5t-41.5 97.5z" />
<glyph unicode="&#xdd;" horiz-adv-x="1372" d="M31 1536h264l391 -610l393 610h260l-534 -807v-729h-236v723zM602 1720l178 328h232l-232 -328h-178z" />
<glyph unicode="&#xde;" horiz-adv-x="1228" d="M143 0v1319v213h228v-213h360q183 0 310.5 -129.5t127.5 -315.5q0 -181 -127.5 -306.5t-310.5 -125.5h-360v-442h-228zM371 643h352q100 0 170 70t70 168t-70 166.5t-170 68.5h-352v-473z" />
<glyph unicode="&#xdf;" horiz-adv-x="1398" d="M178 0v1079q0 197 146.5 327t365.5 130q210 0 347 -121t137 -305q0 -188 -140 -315q105 -61 166.5 -162t61.5 -223q0 -180 -119.5 -305t-290.5 -125q-87 0 -185.5 31.5t-156.5 82.5l92 174q37 -32 95.5 -55t111.5 -23q90 3 156.5 69.5t66.5 162.5q0 104 -76.5 178 t-185.5 74h-100v188h41q103 0 175 71.5t72 172.5q0 100 -74.5 164.5t-191.5 64.5q-123 0 -204.5 -73t-81.5 -183v-1079h-228z" />
<glyph unicode="&#xe0;" horiz-adv-x="1103" d="M92 293q0 71 28.5 130.5t85 103.5t152.5 61t220 0l170 -23v92q0 97 -64 146t-162 49q-79 0 -137.5 -29.5t-108.5 -93.5l-155 141q141 174 411 174q124 0 221.5 -43t157.5 -135.5t60 -222.5v-643h-201l-10 127q-80 -68 -171.5 -107.5t-180.5 -39.5q-137 0 -226.5 88.5 t-89.5 224.5zM233 1536h232l178 -328h-176zM324 305q0 -57 37.5 -91t99.5 -34q133 0 287 127v92l-136 21q-288 43 -288 -115z" />
<glyph unicode="&#xe1;" horiz-adv-x="1103" d="M92 293q0 71 28.5 130.5t85 103.5t152.5 61t220 0l170 -23v92q0 97 -64 146t-162 49q-79 0 -137.5 -29.5t-108.5 -93.5l-155 141q141 174 411 174q124 0 221.5 -43t157.5 -135.5t60 -222.5v-643h-201l-10 127q-80 -68 -171.5 -107.5t-180.5 -39.5q-137 0 -226.5 88.5 t-89.5 224.5zM324 305q0 -57 37.5 -91t99.5 -34q133 0 287 127v92l-136 21q-288 43 -288 -115zM479 1208l178 328h232l-232 -328h-178z" />
<glyph unicode="&#xe2;" horiz-adv-x="1103" d="M92 293q0 71 28.5 130.5t85 103.5t152.5 61t220 0l170 -23v92q0 97 -64 146t-162 49q-79 0 -137.5 -29.5t-108.5 -93.5l-155 141q141 174 411 174q124 0 221.5 -43t157.5 -135.5t60 -222.5v-643h-201l-10 127q-80 -68 -171.5 -107.5t-180.5 -39.5q-137 0 -226.5 88.5 t-89.5 224.5zM233 1186l211 350h240l213 -350h-180l-152 246l-153 -246h-179zM324 305q0 -57 37.5 -91t99.5 -34q133 0 287 127v92l-136 21q-288 43 -288 -115z" />
<glyph unicode="&#xe3;" horiz-adv-x="1103" d="M92 293q0 71 28.5 130.5t85 103.5t152.5 61t220 0l170 -23v92q0 97 -64 146t-162 49q-79 0 -137.5 -29.5t-108.5 -93.5l-155 141q141 174 411 174q124 0 221.5 -43t157.5 -135.5t60 -222.5v-643h-201l-10 127q-80 -68 -171.5 -107.5t-180.5 -39.5q-137 0 -226.5 88.5 t-89.5 224.5zM227 1202q-21 122 37 202.5t160 80.5q123 0 199 -115q29 -51 77 -51q43 0 61 40.5t3 106.5h137q23 -121 -33.5 -201.5t-162.5 -80.5q-121 0 -197 114q-34 52 -78 52q-43 0 -61.5 -42t-1.5 -106h-140zM324 305q0 -57 37.5 -91t99.5 -34q133 0 287 127v92 l-136 21q-288 43 -288 -115z" />
<glyph unicode="&#xe4;" horiz-adv-x="1103" d="M92 293q0 71 28.5 130.5t85 103.5t152.5 61t220 0l170 -23v92q0 97 -64 146t-162 49q-79 0 -137.5 -29.5t-108.5 -93.5l-155 141q141 174 411 174q124 0 221.5 -43t157.5 -135.5t60 -222.5v-643h-201l-10 127q-80 -68 -171.5 -107.5t-180.5 -39.5q-137 0 -226.5 88.5 t-89.5 224.5zM221 1346q0 58 41 98.5t98 40.5t98.5 -40.5t41.5 -98.5q0 -57 -41.5 -97.5t-98.5 -40.5t-98 40.5t-41 97.5zM324 305q0 -57 37.5 -91t99.5 -34q133 0 287 127v92l-136 21q-288 43 -288 -115zM631 1346q0 58 41 98.5t98 40.5t97 -40.5t40 -98.5q0 -57 -40 -97.5 t-97 -40.5t-98 40.5t-41 97.5z" />
<glyph unicode="&#xe5;" horiz-adv-x="1103" d="M92 293q0 71 28.5 130.5t85 103.5t152.5 61t220 0l170 -23v92q0 97 -64 146t-162 49q-79 0 -137.5 -29.5t-108.5 -93.5l-155 141q141 174 411 174q124 0 221.5 -43t157.5 -135.5t60 -222.5v-643h-201l-10 127q-80 -68 -171.5 -107.5t-180.5 -39.5q-137 0 -226.5 88.5 t-89.5 224.5zM324 305q0 -57 37.5 -91t99.5 -34q133 0 287 127v92l-136 21q-288 43 -288 -115zM342 1360q0 91 65.5 156t157.5 65q91 0 155 -65t64 -156t-64 -156t-155 -65q-92 0 -157.5 65t-65.5 156zM444 1360q0 -54 35 -88.5t86 -34.5t86 34.5t35 88.5q0 51 -35 88 t-86 37t-86 -37t-35 -88z" />
<glyph unicode="&#xe6;" horiz-adv-x="1718" d="M78 293q0 71 28 130.5t84.5 103.5t152.5 61t220 0l127 -17q5 71 33 156q-21 62 -79.5 93.5t-135.5 31.5q-79 0 -137.5 -29.5t-108.5 -93.5l-156 141q141 174 412 174q248 0 338 -114q130 114 324 114q218 0 339 -148t121 -392q0 -44 -4 -64h-725q14 -126 84 -195t193 -69 q87 0 143.5 35t118.5 131l158 -111q-64 -121 -172 -186t-256 -65q-128 0 -228 48t-164 136q-86 -82 -190.5 -133t-204.5 -51q-137 0 -226 88.5t-89 224.5zM309 305q0 -57 37.5 -91t99.5 -34q125 0 275 117q-20 58 -25 109l-98 14q-289 43 -289 -115zM918 614h518 q-15 112 -79.5 174t-172.5 62q-111 0 -178 -62t-88 -174z" />
<glyph unicode="&#xe7;" horiz-adv-x="888" d="M78 512q0 237 129.5 384.5t355.5 147.5q154 0 254 -71v-225q-41 47 -102 75.5t-127 28.5q-134 0 -210.5 -94.5t-76.5 -245.5t76.5 -246.5t210.5 -95.5q67 0 128 29t101 75v-223q-86 -63 -227 -71l-58 -111q104 20 177 -34.5t73 -151.5q0 -90 -62.5 -152.5t-152.5 -62.5 q-72 0 -140.5 40t-96.5 99l102 39q20 -29 59 -49.5t76 -20.5q44 0 74.5 31.5t30.5 75.5q0 66 -56 89.5t-135 -10.5l-88 56l88 168q-189 26 -296 169t-107 357z" />
<glyph unicode="&#xe8;" horiz-adv-x="1107" d="M78 510q0 235 132.5 384.5t358.5 149.5q218 0 339.5 -148.5t121.5 -391.5q0 -44 -4 -64h-725q14 -126 84 -195t193 -69q87 0 143.5 35t118.5 131l157 -111q-64 -121 -172 -186t-256 -65q-228 0 -359.5 147t-131.5 383zM240 1538h231l178 -328h-176zM307 614h518 q-15 112 -79.5 174t-172.5 62q-111 0 -178 -62t-88 -174z" />
<glyph unicode="&#xe9;" horiz-adv-x="1107" d="M78 510q0 235 132.5 384.5t358.5 149.5q218 0 339.5 -148.5t121.5 -391.5q0 -44 -4 -64h-725q14 -126 84 -195t193 -69q87 0 143.5 35t118.5 131l157 -111q-64 -121 -172 -186t-256 -65q-228 0 -359.5 147t-131.5 383zM307 614h518q-15 112 -79.5 174t-172.5 62 q-111 0 -178 -62t-88 -174zM485 1210l179 328h231l-231 -328h-179z" />
<glyph unicode="&#xea;" horiz-adv-x="1107" d="M78 510q0 235 132.5 384.5t358.5 149.5q218 0 339.5 -148.5t121.5 -391.5q0 -44 -4 -64h-725q14 -126 84 -195t193 -69q87 0 143.5 35t118.5 131l157 -111q-64 -121 -172 -186t-256 -65q-228 0 -359.5 147t-131.5 383zM240 1188l211 350h239l213 -350h-180l-152 246 l-153 -246h-178zM307 614h518q-15 112 -79.5 174t-172.5 62q-111 0 -178 -62t-88 -174z" />
<glyph unicode="&#xeb;" horiz-adv-x="1107" d="M78 510q0 235 132.5 384.5t358.5 149.5q218 0 339.5 -148.5t121.5 -391.5q0 -44 -4 -64h-725q14 -126 84 -195t193 -69q87 0 143.5 35t118.5 131l157 -111q-64 -121 -172 -186t-256 -65q-228 0 -359.5 147t-131.5 383zM227 1348q0 58 41.5 98.5t98.5 40.5t98 -40.5 t41 -98.5q0 -57 -41 -97.5t-98 -40.5t-98.5 40.5t-41.5 97.5zM307 614h518q-15 112 -79.5 174t-172.5 62q-111 0 -178 -62t-88 -174zM637 1348q0 58 41 98.5t98 40.5t97 -40.5t40 -98.5q0 -57 -40 -97.5t-97 -40.5t-98 40.5t-41 97.5z" />
<glyph unicode="&#xec;" horiz-adv-x="514" d="M-74 1536h232l178 -328h-176zM143 0v1024h228v-1024h-228z" />
<glyph unicode="&#xed;" horiz-adv-x="514" d="M143 0v1024h228v-1024h-228zM172 1208l178 328h232l-232 -328h-178z" />
<glyph unicode="&#xee;" horiz-adv-x="514" d="M-74 1186l211 350h240l213 -350h-180l-152 246l-154 -246h-178zM143 0v1024h228v-1024h-228z" />
<glyph unicode="&#xef;" horiz-adv-x="514" d="M-86 1346q0 58 41 98.5t98 40.5t98.5 -40.5t41.5 -98.5q0 -57 -41.5 -97.5t-98.5 -40.5t-98 40.5t-41 97.5zM143 0v1024h228v-1024h-228zM324 1346q0 58 41 98.5t98 40.5t97 -40.5t40 -98.5q0 -57 -40 -97.5t-97 -40.5t-98 40.5t-41 97.5z" />
<glyph unicode="&#xf0;" horiz-adv-x="1271" d="M78 512q0 146 74.5 268.5t203 193t281.5 70.5q131 0 250 -55q-69 169 -197 266l-100 -129l-74 58l96 123q-130 68 -286 71l45 183q192 0 362 -103l88 113l74 -55l-86 -111q178 -139 282.5 -375t104.5 -518q0 -146 -74.5 -268.5t-203 -193t-281.5 -70.5t-281.5 70.5 t-203 193t-74.5 268.5zM305 512q0 -138 97 -235t235 -97q137 0 233.5 97t96.5 235t-96.5 235t-233.5 97q-138 0 -235 -97t-97 -235z" />
<glyph unicode="&#xf1;" horiz-adv-x="1218" d="M143 0v1024h207l12 -121q125 141 324 141q174 0 286.5 -110.5t112.5 -286.5v-647h-229v621q0 97 -67 160t-168 63q-104 0 -177 -69t-73 -167v-608h-228zM276 1202q-21 122 37 202.5t160 80.5q123 0 199 -115q29 -51 78 -51q43 0 60.5 40.5t2.5 106.5h137 q23 -121 -33.5 -201.5t-162.5 -80.5q-121 0 -197 114q-34 52 -78 52q-43 0 -61.5 -42t-1.5 -106h-140z" />
<glyph unicode="&#xf2;" horiz-adv-x="1167" d="M78 512q0 148 62.5 269t179 192t264.5 71t264.5 -71t179 -192t62.5 -269t-62.5 -269t-179 -192t-264.5 -71t-264.5 71t-179 192t-62.5 269zM252 1536h231l179 -328h-177zM301 512q0 -143 76.5 -237.5t206.5 -94.5q129 0 205.5 95t76.5 237t-76.5 237t-205.5 95 q-130 0 -206.5 -94.5t-76.5 -237.5z" />
<glyph unicode="&#xf3;" horiz-adv-x="1167" d="M78 512q0 148 62.5 269t179 192t264.5 71t264.5 -71t179 -192t62.5 -269t-62.5 -269t-179 -192t-264.5 -71t-264.5 71t-179 192t-62.5 269zM301 512q0 -143 76.5 -237.5t206.5 -94.5q129 0 205.5 95t76.5 237t-76.5 237t-205.5 95q-130 0 -206.5 -94.5t-76.5 -237.5z M498 1208l178 328h231l-231 -328h-178z" />
<glyph unicode="&#xf4;" horiz-adv-x="1167" d="M78 512q0 148 62.5 269t179 192t264.5 71t264.5 -71t179 -192t62.5 -269t-62.5 -269t-179 -192t-264.5 -71t-264.5 71t-179 192t-62.5 269zM252 1186l211 350h239l213 -350h-180l-151 246l-154 -246h-178zM301 512q0 -143 76.5 -237.5t206.5 -94.5q129 0 205.5 95 t76.5 237t-76.5 237t-205.5 95q-130 0 -206.5 -94.5t-76.5 -237.5z" />
<glyph unicode="&#xf5;" horiz-adv-x="1167" d="M78 512q0 148 62.5 269t179 192t264.5 71t264.5 -71t179 -192t62.5 -269t-62.5 -269t-179 -192t-264.5 -71t-264.5 71t-179 192t-62.5 269zM246 1202q-21 122 36.5 202.5t159.5 80.5q123 0 199 -115q29 -51 78 -51q43 0 60.5 40.5t2.5 106.5h138q23 -121 -34 -201.5 t-163 -80.5q-121 0 -197 114q-34 52 -77 52t-62 -42t-2 -106h-139zM301 512q0 -143 76.5 -237.5t206.5 -94.5q129 0 205.5 95t76.5 237t-76.5 237t-205.5 95q-130 0 -206.5 -94.5t-76.5 -237.5z" />
<glyph unicode="&#xf6;" horiz-adv-x="1167" d="M78 512q0 148 62.5 269t179 192t264.5 71t264.5 -71t179 -192t62.5 -269t-62.5 -269t-179 -192t-264.5 -71t-264.5 71t-179 192t-62.5 269zM240 1346q0 58 41 98.5t98 40.5t98 -40.5t41 -98.5q0 -57 -41 -97.5t-98 -40.5t-98 40.5t-41 97.5zM301 512q0 -143 76.5 -237.5 t206.5 -94.5q129 0 205.5 95t76.5 237t-76.5 237t-205.5 95q-130 0 -206.5 -94.5t-76.5 -237.5zM649 1346q0 58 41 98.5t98 40.5t97.5 -40.5t40.5 -98.5q0 -57 -40.5 -97.5t-97.5 -40.5t-98 40.5t-41 97.5z" />
<glyph unicode="&#xf7;" horiz-adv-x="1462" d="M117 504v119h1229v-119h-1229zM606 215q0 51 37.5 88t87.5 37q51 0 89 -37t38 -88q0 -53 -37.5 -89t-89.5 -36q-51 0 -88 36t-37 89zM606 911q0 51 37.5 88t87.5 37q51 0 89 -37t38 -88q0 -53 -37.5 -89t-89.5 -36q-51 0 -88 36t-37 89z" />
<glyph unicode="&#xf8;" horiz-adv-x="1167" d="M78 512q0 148 62.5 269t179 192t264.5 71q139 0 256 -65l73 111h111l-109 -166q84 -72 129.5 -179t45.5 -233q0 -148 -62.5 -269t-179 -192t-264.5 -71q-142 0 -254 65l-74 -113h-113l111 166q-84 74 -130 181.5t-46 232.5zM301 512q0 -144 74 -233l350 526 q-64 39 -141 39q-130 0 -206.5 -94.5t-76.5 -237.5zM444 217q58 -37 140 -37q129 0 205.5 95t76.5 237t-71 231z" />
<glyph unicode="&#xf9;" horiz-adv-x="1232" d="M147 389v635h228v-608q0 -99 69 -167.5t170 -68.5q102 0 175 69t73 167v608h228v-1024h-207l-13 123q-58 -67 -139.5 -105t-175.5 -38q-172 0 -290 119t-118 290zM287 1536h231l178 -328h-176z" />
<glyph unicode="&#xfa;" horiz-adv-x="1232" d="M147 389v635h228v-608q0 -99 69 -167.5t170 -68.5q102 0 175 69t73 167v608h228v-1024h-207l-13 123q-58 -67 -139.5 -105t-175.5 -38q-172 0 -290 119t-118 290zM532 1208l179 328h231l-231 -328h-179z" />
<glyph unicode="&#xfb;" horiz-adv-x="1232" d="M147 389v635h228v-608q0 -99 69 -167.5t170 -68.5q102 0 175 69t73 167v608h228v-1024h-207l-13 123q-58 -67 -139.5 -105t-175.5 -38q-172 0 -290 119t-118 290zM287 1186l211 350h239l213 -350h-180l-152 246l-153 -246h-178z" />
<glyph unicode="&#xfc;" horiz-adv-x="1232" d="M147 389v635h228v-608q0 -99 69 -167.5t170 -68.5q102 0 175 69t73 167v608h228v-1024h-207l-13 123q-58 -67 -139.5 -105t-175.5 -38q-172 0 -290 119t-118 290zM274 1346q0 58 41.5 98.5t98.5 40.5t98 -40.5t41 -98.5q0 -57 -41 -97.5t-98 -40.5t-98.5 40.5t-41.5 97.5 zM684 1346q0 58 41 98.5t98 40.5t97.5 -40.5t40.5 -98.5q0 -57 -40.5 -97.5t-97.5 -40.5t-98 40.5t-41 97.5z" />
<glyph unicode="&#xfd;" horiz-adv-x="1234" d="M147 389v635h228v-608q0 -99 69 -167.5t170 -68.5q102 0 175 69t73 167v608h228l2 -1024q0 -151 -60.5 -267.5t-181.5 -184.5t-287 -68q-204 0 -354 80v243q157 -122 373 -122q134 0 207 82.5t73 236.5v113q-127 -133 -307 -133q-172 0 -290 119t-118 290zM532 1208 l179 328h231l-231 -328h-179z" />
<glyph unicode="&#xfe;" horiz-adv-x="1325" d="M143 -510v2046h228v-668q66 84 159 130t205 46q141 0 259 -70.5t185.5 -193t67.5 -268.5t-67.5 -268.5t-185.5 -193t-259 -70.5q-112 0 -205 46t-159 130v-666h-228zM373 512q0 -138 96 -235t233 -97q138 0 235 97t97 235t-97 235t-235 97q-137 0 -233 -97t-96 -235z" />
<glyph unicode="&#xff;" horiz-adv-x="1234" d="M147 389v635h228v-608q0 -99 69 -167.5t170 -68.5q102 0 175 69t73 167v608h228l2 -1024q0 -151 -60.5 -267.5t-181.5 -184.5t-287 -68q-204 0 -354 80v243q157 -122 373 -122q134 0 207 82.5t73 236.5v113q-127 -133 -307 -133q-172 0 -290 119t-118 290zM274 1346 q0 58 41.5 98.5t98.5 40.5t98 -40.5t41 -98.5q0 -57 -41 -97.5t-98 -40.5t-98.5 40.5t-41.5 97.5zM684 1346q0 58 41 98.5t98 40.5t97.5 -40.5t40.5 -98.5q0 -57 -40.5 -97.5t-97.5 -40.5t-98 40.5t-41 97.5z" />
<glyph unicode="&#x152;" horiz-adv-x="2537" d="M137 768q0 161 62.5 307t168 251t251.5 167.5t307 62.5q177 0 332 -72.5t266 -201.5v254h835v-199h-645v-469h557v-200h-557v-469h645v-199h-835v254q-111 -129 -266 -201.5t-332 -72.5q-161 0 -307 62.5t-251.5 167.5t-168 251t-62.5 307zM365 768q0 -154 74.5 -283.5 t204 -204.5t284.5 -75q153 0 282 75t204 204.5t75 283.5t-75 283.5t-204 204.5t-282 75q-155 0 -284.5 -75t-204 -204.5t-74.5 -283.5z" />
<glyph unicode="&#x153;" horiz-adv-x="1898" d="M78 512q0 148 62.5 269t179 192t264.5 71q122 0 222 -47.5t169 -134.5q135 182 385 182q218 0 339.5 -148.5t121.5 -391.5q0 -44 -4 -64h-725q14 -126 83.5 -195t192.5 -69q87 0 143.5 35t118.5 131l158 -111q-64 -121 -172 -186t-256 -65q-253 0 -387 180 q-69 -85 -169 -132.5t-220 -47.5q-148 0 -264.5 71t-179 192t-62.5 269zM301 512q0 -143 76.5 -237.5t206.5 -94.5q129 0 205.5 95t76.5 237t-76.5 237t-205.5 95q-130 0 -206.5 -94.5t-76.5 -237.5zM1098 614h518q-15 112 -79.5 174t-172.5 62q-111 0 -178 -62t-88 -174z " />
<glyph unicode="&#x178;" horiz-adv-x="1372" d="M31 1536h264l391 -610l393 610h260l-534 -807v-729h-236v723zM344 1858q0 58 41 98.5t98 40.5t98.5 -40.5t41.5 -98.5q0 -57 -41.5 -97.5t-98.5 -40.5t-98 40.5t-41 97.5zM754 1858q0 58 41 98.5t98 40.5t97 -40.5t40 -98.5q0 -57 -40 -97.5t-97 -40.5t-98 40.5t-41 97.5 z" />
<glyph unicode="&#x2c6;" horiz-adv-x="94" d="M55 1186l211 350h240l213 -350h-180l-152 246l-154 -246h-178z" />
<glyph unicode="&#x2dc;" horiz-adv-x="96" d="M59 1264q-21 122 37 202t160 80q124 0 199 -114q30 -52 77 -52q43 0 61 41t3 107h137q23 -121 -33.5 -202t-162.5 -81q-121 0 -197 115q-34 51 -78 51q-43 0 -61.5 -41.5t-1.5 -105.5h-140z" />
<glyph unicode="&#x2000;" horiz-adv-x="1024" />
<glyph unicode="&#x2001;" horiz-adv-x="2048" />
<glyph unicode="&#x2002;" horiz-adv-x="1024" />
<glyph unicode="&#x2003;" horiz-adv-x="2048" />
<glyph unicode="&#x2004;" horiz-adv-x="682" />
<glyph unicode="&#x2005;" horiz-adv-x="512" />
<glyph unicode="&#x2006;" horiz-adv-x="341" />
<glyph unicode="&#x2007;" horiz-adv-x="341" />
<glyph unicode="&#x2008;" horiz-adv-x="256" />
<glyph unicode="&#x2009;" horiz-adv-x="409" />
<glyph unicode="&#x200a;" horiz-adv-x="113" />
<glyph unicode="&#x2010;" horiz-adv-x="1073" d="M178 455v155h717v-155h-717z" />
<glyph unicode="&#x2011;" horiz-adv-x="1073" d="M178 455v155h717v-155h-717z" />
<glyph unicode="&#x2012;" horiz-adv-x="1073" d="M178 455v155h717v-155h-717z" />
<glyph unicode="&#x2013;" horiz-adv-x="1380" d="M178 455v155h1024v-155h-1024z" />
<glyph unicode="&#x2014;" horiz-adv-x="2082" d="M18 455v155h2048v-155h-2048z" />
<glyph unicode="&#x2018;" horiz-adv-x="530" d="M71 1278q37 149 129 222q59 47 130 48v-106q-67 -2 -111 -92q-33 -70 -26 -124q3 -30 20 -30q57 0 97 -40.5t40 -98.5t-40 -97.5t-99 -39.5q-99 0 -138 109q-38 107 -2 249z" />
<glyph unicode="&#x2019;" horiz-adv-x="423" d="M74 1411q0 58 40 97.5t99 39.5q76 0 116 -64.5t40 -162.5q0 -93 -31.5 -183t-96 -153.5t-147.5 -64.5v106q40 1 73 38t48.5 82t15.5 83q0 43 -20 43q-57 0 -97 40.5t-40 98.5z" />
<glyph unicode="&#x201a;" horiz-adv-x="520" d="M78 119q0 59 40 99t99 40q81 0 122.5 -65.5t41.5 -167.5q0 -92 -32.5 -181.5t-99.5 -152t-151 -62.5v107q63 0 104.5 65.5t41.5 128.5q0 52 -29 52q-57 0 -97 40t-40 97z" />
<glyph unicode="&#x201c;" horiz-adv-x="927" d="M236 1167q0 93 31 183t95.5 154t147.5 65v-107q-40 -1 -73 -37.5t-48.5 -81.5t-15.5 -83q0 -43 20 -43q57 0 97 -41t40 -99t-40 -97.5t-99 -39.5q-76 0 -115.5 64.5t-39.5 162.5zM584 1167q0 93 31 183t95.5 154t147.5 65v-107q-40 -1 -73 -37.5t-48.5 -81.5t-15.5 -83 q0 -43 20 -43q57 0 97.5 -41t40.5 -99t-40.5 -97.5t-99.5 -39.5q-76 0 -115.5 64.5t-39.5 162.5z" />
<glyph unicode="&#x201d;" horiz-adv-x="864" d="M78 1411q0 58 40 97.5t99 39.5q76 0 116 -64.5t40 -162.5q0 -93 -31.5 -183t-96 -153.5t-147.5 -64.5v106q40 1 73 38t49 82t16 83q0 43 -21 43q-57 0 -97 40.5t-40 98.5zM426 1411q0 58 40 97.5t99 39.5q76 0 116 -64.5t40 -162.5q0 -93 -31.5 -183t-96 -153.5 t-147.5 -64.5v106q40 1 73 38t49 82t16 83q0 43 -21 43q-57 0 -97 40.5t-40 98.5z" />
<glyph unicode="&#x201e;" horiz-adv-x="894" d="M78 119q0 59 40 99t99 40q81 0 122.5 -65.5t41.5 -167.5q0 -92 -32.5 -181.5t-99.5 -152t-151 -62.5v107q63 0 104.5 65.5t41.5 128.5q0 52 -29 52q-57 0 -97 40t-40 97zM473 119q0 59 40.5 99t98.5 40q81 0 122.5 -65.5t41.5 -167.5q0 -92 -32.5 -181.5t-99 -152 t-150.5 -62.5v107q63 0 104 65.5t41 128.5q0 52 -29 52q-57 0 -97 40t-40 97z" />
<glyph unicode="&#x2022;" horiz-adv-x="1009" d="M219 668q0 115 85.5 200.5t201.5 85.5q114 0 199.5 -85.5t85.5 -200.5q0 -119 -85 -202t-200 -83q-117 0 -202 83t-85 202z" />
<glyph unicode="&#x2026;" horiz-adv-x="1480" d="M61 119q0 57 41.5 98t98.5 41t98 -41t41 -98t-41 -98t-98 -41t-98.5 41t-41.5 98zM498 119q0 57 41 98t98 41t98 -41t41 -98t-41 -98t-98 -41t-98 41t-41 98zM907 119q0 57 41.5 98t98.5 41t98 -41t41 -98t-41 -98t-98 -41t-98.5 41t-41.5 98z" />
<glyph unicode="&#x202f;" horiz-adv-x="409" />
<glyph unicode="&#x2039;" horiz-adv-x="733" d="M98 571l312 377h186l-311 -377l311 -376h-186z" />
<glyph unicode="&#x203a;" horiz-adv-x="733" d="M137 195l312 376l-312 377h187l311 -377l-311 -376h-187z" />
<glyph unicode="&#x205f;" horiz-adv-x="512" />
<glyph unicode="&#x20ac;" horiz-adv-x="1376" d="M76 524l74 148h120v176h-194l74 147h120v74q0 215 133 351t342 136q155 0 285 -99t168 -249l-170 -71q-10 103 -94.5 174t-188.5 71q-137 0 -219 -85.5t-82 -227.5v-74h433l-74 -147h-359v-176h433l-74 -148h-359v-57q0 -142 82 -227.5t219 -85.5q104 0 188.5 71 t94.5 174l170 -71q-38 -150 -168 -249t-285 -99q-209 0 -342 136t-133 351v57h-194z" />
<glyph unicode="&#x2122;" horiz-adv-x="1484" d="M20 1436v100h498v-100h-192v-619h-115v619h-191zM612 817v719h123l252 -377l254 377h121v-719h-113v539l-262 -387l-260 387v-539h-115z" />
<glyph unicode="&#x25fc;" horiz-adv-x="1024" d="M0 0v1024h1024v-1024h-1024z" />
</font>
</defs>
</svg>
